Форсаж 5 / Fast Five (Джастин Лин / Justin Lin) [2011, США, боевик, криминал, триллер, BDRip-AVC] [Extended Cut] Dub + AVO (А.Гаврилов) + AVO (Л.Володарский) + Sub Rus, Eng + Original Eng

Reply to topic
DL-List and Torrent activity
Size:  5.62 GB   |    Registered:  3 months 23 days   |    Completed:  0 times

Seeder not seen: Never

 
   
 
 
Author Message

admin ®

Gender: Male

Longevity: 3 years

Posts: 10018

Post 07-Oct-2017 03:23

[Quote]

Форсаж 5Fast FiveРасширенная версия / Extended Cut«Всё решает скорость, всё решает команда»

Страна: США
Жанр: боевик, криминал, триллер
Год выпуска: 2011
Продолжительность: 02:11:34
Перевод: Профессиональный (дублированный) Blu-ray
Перевод 2: Авторский (одноголосый закадровый) А.Гаврилов
Перевод 3: Авторский (одноголосый закадровый) Л.Володарский
Субтитры: русские,английские
Режиссер: Джастин Лин / Justin Lin
В ролях: Вин Дизель, Пол Уокер, Мэтт Шульце, Тайриз Гибсон, Лудакрис, Дуэйн Джонсон, Дон Омар, Джордана Брюстер, Эльза Патаки, Галь Гадот, Тего Калдерон.
Описание: Освободив Доминика из-под стражи, Брайан и Миа Торетто были вынуждены пересечь несколько границ, чтобы укрыться от властей. Загнанным в угол в Рио-де-Жанейро, им предстоит выполнить последнюю работу во имя собственной свободы. Собирая команду самых лучших гонщиков, они понимают, что противостоять им предстоит коррумпированному дельцу, желающему их смерти. Но он не единственный, кто идет по следу героев. Крутой федеральный агент Люк Хоббс всегда выходит победителем — а в этот раз заданием его отряда стала поимка Дома и Брайана.
Доп. информация:
Релиз группы:
Сохранены оригинальные главы как на Bluray
Качество видео: BDRip-AVC - BDRemux 1080p
Формат видео: MKV
Видео: 1120x476 (2,35:1), 23.976 fps, 4215 Кbps, 0.330 bit/pixe
Аудио: 48 kHz, AC3 Dolby Digital, 3/2 (L,C,R,l,r) + LFE ch, 448.00 kbps | DUB
Аудио 2: 48 kHz, AC3 Dolby Digital, 3/2 (L,C,R,l,r) + LFE ch, 448.00 kbps | AVO отдельно
Аудио 3: 48 kHz, AC3 Dolby Digital, 3/2 (L,C,R,l,r) + LFE ch, 448.00 kbps | AVO отдельно
Аудио 4: 48 kHz, AC3 Dolby Digital, 3/2 (L,C,R,l,r) + LFE ch, 448.00 kbps | ENG
Формат субтитров: softsub (SRT)
Доп. информация о субтитрах: отключаемые

Знаете ли Вы что

• Основные съемки фильма проходили в Пуэрто-Рико.
• После финальных титров можно увидеть Хоббса, сидящего в кабинете в тот момент, когда Моника Фуэнтес (тайный агент из «Двойного Форсажа») приносит ему папку о последнем уголовном деле. Когда Хоббс её открывает, внутри прикреплена фотография Летти, которая по идее погибла в четвёртой части, но принесённое дело говорит совершенно об обратном.
• Это первый фильм франшизы, который можно увидеть в формате IMAX.
• Во время погони с сейфом, в автомобиль Брайна врезается мотоциклист и падает на лобовое стекло, от чего оно трескается. В следующий момент показывают это же стекло, но уже с дырками от пуль, а еще через момент - уже полностью целое стекло.
• На протяжении всего фильма его герои пьют пиво Brahma.
• Бронированный внедорожник команды Хоббса называется Knight XV.

MediaInfo

General
Unique ID : 226290766057904447433189091321584764768 (0xAA3E0428E3B748D29436E0FBA6AF4760)
Complete name : E:\Мои рипы\Форсаж 5\Fast Five by_IVAN@190282.mkv
Format : Matroska
Format version : Version 4 / Version 2
File size : 4.79 GiB
Duration : 2h 11mn
Overall bit rate : 5 215 Kbps
Movie name : Fast Five by_IVAN@190282
Encoded date : UTC 2016-03-08 18:39:13
Writing application : mkvmerge v8.8.0 ('Wind at my back') 64bit
Writing library : libebml v1.3.3 + libmatroska v1.4.4
Attachements : cover.jpg
DURATION : 02:04:54.828000000
NUMBER_OF_FRAMES : 1272
NUMBER_OF_BYTES : 38831
_STATISTICS_WRITING_APP : mkvmerge v8.8.0 ('Wind at my back') 64bit
_STATISTICS_WRITING_DATE_UT : 2016-03-08 18:39:13
_STATISTICS_TAGS : BPS DURATION NUMBER_OF_FRAMES NUMBER_OF_BYTES
Video
ID : 1
Format : AVC
Format/Info : Advanced Video Codec
Format profile : High@L4.1
Format settings, CABAC : Yes
Format settings, ReFrames : 14 frames
Codec ID : V_MPEG4/ISO/AVC
Duration : 2h 11mn
Bit rate : 4 215 Kbps
Width : 1 120 pixels
Height : 476 pixels
Display aspect ratio : 2.35:1
Frame rate mode : Constant
Frame rate : 23.976 fps
Color space : YUV
Chroma subsampling : 4:2:0
Bit depth : 8 bits
Scan type : Progressive
Bits/(Pixel*Frame) : 0.330
Stream size : 3.87 GiB (81%)
Title : Fast Five by_IVAN@190282
Writing library : x264 core 146 r2538kMod 121396c
Encoding settings : cabac=1 / ref=14 / deblock=1:-3:-3 / analyse=0x3:0x113 / me=umh / subme=11 / psy=1 / fade_compensate=0.00 / psy_rd=1.00:0.15 / mixed_ref=1 / me_range=48 / chroma_me=1 / trellis=2 / 8x8dct=1 / cqm=0 / deadzone=21,11 / fast_pskip=0 / chroma_qp_offset=0 / threads=6 / lookahead_threads=6 / sliced_threads=0 / slices=10 / nr=0 / decimate=1 / interlaced=0 / bluray_compat=0 / constrained_intra=0 / fgo=0 / bframes=16 / b_pyramid=2 / b_adapt=2 / b_bias=0 / direct=3 / weightb=1 / open_gop=1 / weightp=2 / keyint=240 / keyint_min=23 / scenecut=40 / intra_refresh=0 / rc_lookahead=40 / rc=crf / mbtree=0 / crf=17.4000 / qcomp=0.60 / qpmin=0 / qpmax=69 / qpstep=4 / vbv_maxrate=50000 / vbv_bufsize=62500 / crf_max=0.0 / nal_hrd=none / filler=0 / ip_ratio=1.40 / pb_ratio=1.30 / aq=1:1.00
Default : Yes
Forced : No
Color range : Limited
Color primaries : BT.709
Transfer characteristics : BT.709
Matrix coefficients : BT.709
Audio #1
ID : 2
Format : AC-3
Format/Info : Audio Coding 3
Mode extension : CM (complete main)
Format settings, Endianness : Big
Codec ID : A_AC3
Duration : 2h 11mn
Bit rate mode : Constant
Bit rate : 448 Kbps
Channel(s) : 6 channels
Channel positions : Front: L C R, Side: L R, LFE
Sampling rate : 48.0 KHz
Compression mode : Lossy
Stream size : 422 MiB (9%)
Title : Dub
Language : Russian
Default : Yes
Forced : No
Audio #2
ID : 3
Format : AC-3
Format/Info : Audio Coding 3
Mode extension : CM (complete main)
Format settings, Endianness : Big
Codec ID : A_AC3
Duration : 2h 11mn
Bit rate mode : Constant
Bit rate : 448 Kbps
Channel(s) : 6 channels
Channel positions : Front: L C R, Side: L R, LFE
Sampling rate : 48.0 KHz
Compression mode : Lossy
Stream size : 422 MiB (9%)
Title : Eng
Language : English
Default : No
Forced : No
Text #1
ID : 4
Format : UTF-8
Codec ID : S_TEXT/UTF8
Codec ID/Info : UTF-8 Plain Text
Title : rus.forsed
Language : Russian
Default : Yes
Forced : Yes
Text #2
ID : 5
Format : UTF-8
Codec ID : S_TEXT/UTF8
Codec ID/Info : UTF-8 Plain Text
Title : Rus
Language : Russian
Default : No
Forced : No
Text #3
ID : 6
Format : UTF-8
Codec ID : S_TEXT/UTF8
Codec ID/Info : UTF-8 Plain Text
Title : Eng
Language : English
Default : No
Forced : No
Menu
00:00:00.000 : en:Chapter 1
00:07:45.715 : en:Chapter 2
00:17:29.465 : en:Chapter 3
00:23:01.838 : en:Chapter 4
00:28:21.574 : en:Chapter 5
00:35:05.353 : en:Chapter 6
00:40:56.036 : en:Chapter 7
00:48:51.303 : en:Chapter 8
00:55:29.993 : en:Chapter 9
01:04:07.551 : en:Chapter 10
01:11:42.256 : en:Chapter 11
01:19:23.466 : en:Chapter 12
01:23:33.800 : en:Chapter 13
01:28:56.330 : en:Chapter 14
01:32:57.488 : en:Chapter 15
01:40:27.104 : en:Chapter 16
01:48:14.529 : en:Chapter 17
01:56:03.915 : en:Chapter 18
02:00:29.013 : en:Chapter 19
02:04:38.095 : en:Credits

x264 log

VIDEO ENCODING
x264 [info]: frame I:1617 Avg QP:16.31 size: 89758
x264 [info]: frame P:50021 Avg QP:17.92 size: 38332
x264 [info]: frame B:137652 Avg QP:19.12 size: 15947
x264 [info]: consecutive B-frames: 5.7% 7.1% 12.0% 18.4% 14.8% 30.7% 5.2% 1.2% 1.4% 0.8% 0.8% 0.3% 0.5% 0.4% 0.1% 0.0% 0.3%
x264 [info]: kb/s:4314.33
x264 [total]: encoded 189290 frames, 4.66 fps, 4314.33 kb/s, duration 11:17:25.83

Скриншот c названием фильма

Скриншоты

Сравнения

Source by_IVAN@190282
Убедительная просьба пожалуйста кто скачал не бросайте раздачу!!!
 GOLD TORRENT! DOWNLOAD TRAFFIC DOES NOT CONSIDER! 
Torrent: Registered [ 2020-06-06 07:10 ]   · 8644657C23F431357126A75DD15820A2E902F29D

Download .torrent

Download

15 KB

Status: checked
Completed: 0 times
Size: 5.62 GB
Поделиться:
terms.php
[Profile] [PM]
Display posts:    
Reply to topic

Current time is: 30-Sep 04:55

All times are UTC + 3



You cannot post new topics in this forum
You cannot reply to topics in this forum
You cannot edit your posts in this forum
You cannot delete your posts in this forum
You cannot vote in polls in this forum
You cannot attach files in this forum
You can download files in this forum