Шкала агрессии / The Aggression Scale (С. Миллер / Steven C. Miller) [2012, США, Боевик, Триллер, BDRip-AVC] VO (ХихиДок) + Original Eng

Reply to topic
DL-List and Torrent activity
Size:  2.05 GB   |    Registered:  3 months 23 days   |    Completed:  0 times

Seeder not seen: Never

 
   
 
 
Author Message

admin ®

Gender: Male

Longevity: 3 years

Posts: 10018

Post 07-Oct-2017 03:10

[Quote]

Шкала агрессииThe Aggression Scale
Страна: США
Жанр: Боевик, Триллер
Год выпуска: 2012
Продолжительность: 01:25:16
Перевод: Одноголосый закадровый (Хихикающий Доктор по субтитрам МЕГАПЫХАРЬ)
Субтитры: нет
Оригинальная аудиодорожка: английский
Режиссер: С. Миллер / Steven C. Miller
В ролях: Бойд Кестнер, Дерек Мирс, Джейкоб Рейнольдс, Джозеф МакКелхир, Дэна Эшбрук, Лиза Ротонди, Райан Хартвиг, Рэй Уайз, Фаббианн Терез, Эбен Костбар.
Описание: Босс мафии обнаруживает, что у него стырили полмиллиона долларов и отправляет четырех наемных убийц отправить "сообщение" семьям похитителей. Однако в одном из домов гангстеры встречают подростка по имени Оуэн. Оуэн имеет склонность к насилию и умеет создавать смертельные ловушки.
Доп. информация:
:
Качество видео: BDRip-AVC (Исходник:Шкала агрессии / The Aggression Scale (2012) 1080p BD-Remux)
Формат видео: MKV
Видео: 1024x424 (2.40:1), 23.976 fps,x264@L4.1 ~2792 kbps avg, 0.268 bit/pixe
Аудио: Русский( 48КГц ,AC3, 2 ch, 192 Кбит/с)
Аудио 2: Английский( 48КГц ,AC3, 2 ch, 448 Кбит/с)

MediaInfo

Уникальный идентификатор : 176703525528518033779556344510858816050 (0x84EFDC71AAAF1C49B0C14EE024666A32)
Полное имя : C:\Фильмы\ШкалаАгреии\Schkala.agressii.2012.x264.BDRip.(AVC).bi-IVAN190282.mkv
Формат : Matroska
Версия формата : Version 1
Размер файла : 2,05 Гбайт
Продолжительность : 1 ч. 25 м.
Общий поток : 3436 Кбит/сек
Дата кодирования : UTC 2013-01-21 06:08:21
Программа кодирования : mkvmerge v2.1.0 ('Another Place To Fall') built on Aug 19 2007 13:40:07
Библиотека кодирования : libebml v0.7.7 + libmatroska v0.8.1
Идентификатор : 1
Формат : AVC
Формат/Информация : Advanced Video Codec
Профиль формата : High@L4.1
Параметр CABAC формата : Да
Параметр ReFrames формата : 8 кадров
Идентификатор кодека : V_MPEG4/ISO/AVC
Продолжительность : 1 ч. 25 м.
Битрейт : 2792 Кбит/сек
Ширина : 1024 пикселя
Высота : 424 пикселя
Соотношение сторон : 2,40:1
Режим частоты кадров : Постоянный
Частота кадров : 23,976 кадра/сек
Цветовое пространство : YUV
Субдискретизация насыщенности : 4:2:0
Битовая глубина : 8 бит
Тип развёртки : Прогрессивная
Бит/(Пиксели*Кадры) : 0.268
Размер потока : 1,62 Гбайт (79%)
Библиотека кодирования : x264 core 115 r1937 aa21558
Настройки программы : cabac=1 / ref=8 / deblock=1:-2:-2 / analyse=0x3:0x113 / me=umh / subme=8 / psy=1 / psy_rd=1.00:0.10 / mixed_ref=0 / me_range=32 / chroma_me=1 / trellis=2 / 8x8dct=1 / cqm=0 / deadzone=21,11 / fast_pskip=1 / chroma_qp_offset=-3 / threads=6 / sliced_threads=0 / nr=0 / decimate=1 / interlaced=0 / bluray_compat=0 / constrained_intra=0 / bframes=8 / b_pyramid=2 / b_adapt=2 / b_bias=0 / direct=3 / weightb=1 / open_gop=0 / weightp=0 / keyint=250 / keyint_min=23 / scenecut=40 / intra_refresh=0 / rc_lookahead=30 / rc=2pass / mbtree=1 / bitrate=2792 / ratetol=1.0 / qcomp=0.60 / qpmin=15 / qpmax=47 / qpstep=3 / cplxblur=20.0 / qblur=0.5 / ip_ratio=1.40 / aq=1:1.10
Язык : English
Default : Да
Forced : Нет
Идентификатор : 2
Формат : AC-3
Формат/Информация : Audio Coding 3
Расширение режима : CM (complete main)
Параметр Endianness формата : Big
Идентификатор кодека : A_AC3
Продолжительность : 1 ч. 25 м.
Вид битрейта : Постоянный
Битрейт : 192 Кбит/сек
Каналы : 2 канала
Расположение каналов : Front: L R
Частота : 48,0 КГц
Битовая глубина : 16 бит
Метод сжатия : С потерями
Размер потока : 117 Мбайт (6%)
Заголовок : Любительский одноголосый (Хихикающий доктор)
Язык : Russian
Default : Да
Forced : Нет
Идентификатор : 3
Формат : AC-3
Формат/Информация : Audio Coding 3
Расширение режима : CM (complete main)
Параметр Endianness формата : Big
Идентификатор кодека : A_AC3
Продолжительность : 1 ч. 25 м.
Вид битрейта : Постоянный
Битрейт : 448 Кбит/сек
Каналы : 6 каналов
Расположение каналов : Front: L C R, Side: L R, LFE
Частота : 48,0 КГц
Битовая глубина : 16 бит
Метод сжатия : С потерями
Размер потока : 273 Мбайт (13%)
Заголовок : Оригинал
Язык : English
Default : Нет
Forced : Нет

Скриншот c названием фильма

Скриншоты

 GOLD TORRENT! DOWNLOAD TRAFFIC DOES NOT CONSIDER! 
Torrent: Registered [ 2020-06-06 07:16 ]   · 73CBA812E3C629F9178276654F3E8FE77B4A83BA

Download .torrent

Download

11 KB

Status: checked
Completed: 0 times
Size: 2.05 GB
Поделиться:
terms.php
[Profile] [PM]
Display posts:    
Reply to topic

Current time is: 29-Sep 11:06

All times are UTC + 3



You cannot post new topics in this forum
You cannot reply to topics in this forum
You cannot edit your posts in this forum
You cannot delete your posts in this forum
You cannot vote in polls in this forum
You cannot attach files in this forum
You can download files in this forum