Первый мститель / Captain America: The First Avenger (Джо Джонстон / Joe Johnston) [2011, США, Фантастика, боевик, приключения, BDRip-AVC] Dub + Sub Rus, Eng + Original Eng

Reply to topic
DL-List and Torrent activity
Size:  4.08 GB   |    Registered:  2 years 11 months   |    Completed:  0 times

Seeder not seen: 1 year 10 months

 
   
 
 
Author Message

admin ®

Gender: Male

Longevity: 3 years

Posts: 10017

Post 06-Oct-2017 07:41

[Quote]

Первый мстительCaptain America: The First Avenger«When patriots become heroes»

Страна: США
Жанр: Фантастика, боевик, приключения
Год выпуска: 2011
Продолжительность: 02:04:11
Перевод: Профессиональный (дублированный) Bluray CEE
Субтитры: русские,английские
Оригинальная аудиодорожка: английский
Режиссер: Джо Джонстон / Joe Johnston
В ролях: Крис Эванс (Captain America / Steve Rogers,), Томми Ли Джонс (Colonel Chester Phillips), Хьюго Уивинг (Johann Schmidt / Red Skull), Доминик Купер (Howard Stark), Нил МакДонаф (Timothy 'Dum Dum' Dugan), Дерек Люк (Gabe Jones), Стенли Туччи (Dr. Abraham Erskine), Хейли Этвелл (Peggy Carter), Себастиан Стэн (James Buchanan 'Bucky' Barnes), Ричард Армитэдж (Heinz Kruger), Сэмюэл Л. Джексон (Nick Fury), Тоби Джонс (Dr. Arnim Zola)
Описание: Стив Роджерс добровольно соглашается принять участие в эксперименте, который превратит его в супер солдата, известного как Первый мститель. Роджерс вступает в вооруженные силы США вместе с Баки Барнсом и Пегги Картер, чтобы бороться с враждебной организацией ГИДРА, которой управляет безжалостный Красный Череп.
Доп. информация:
Релиз группы:
Сохранены оригинальные главы как на Bluray
Качество видео: BDRip-AVC Первый мститель / Captain America: The First Avenger (2011) Blu-ray CEE 1080p AVC DTS 5.1
Формат видео: MKV
Видео: 1148x488 (2:35:1), 23,976 fps, 3711 Кbps, 0.276 bit/pixe
Аудио: 48 kHz, AC3 Dolby Digital, 3/2 (L,C,R,l,r) + LFE ch, ~448.00 kbps avg DUB
Аудио 2: 48 kHz, AC3 Dolby Digital, 3/2 (L,C,R,l,r) + LFE ch, ~448.00 kbps avg ENG
Формат субтитров: softsub (SRT)
Доп. информация о субтитрах: отключаемые

Знаете ли Вы что

На пост режиссера «Первого мстителя» изначально был приглашен Джон Фавро, но он предпочел поработать над «Железным человеком». Снять фильм мог также Ник Кассаветис. Луи Летерье был не против поработать над этой картиной, но студия Marvel отказала ему.
На главную роль пробовались: Джон Красински, Майк Фогель, Чейс Кроуфорд, Гаррет Хедлунд, Ченнинг Татум, Уилсон Бетел, Скотт Портер, Майкл Кэссиди и Патрик Флюгер. Рассматривались кандидатуры Леонардо ДиКаприо, Дженсена Эклса, Джон Сина и Мэттью МакКонахи.
Капитан Америка был создан писателем Джо Саймоном и художником Джеком Кирби и впервые появился в комиксе Captain America Comics #1 (март 1941).
Себастьян Стэн рассматривался на роль Капитана Америки, но в итоге получил роль Баки.
Крис Эванс отказывался от роли три раза, прежде чем принять участие. После этого он встретился с режиссером и продюсером, которые убедили его взять на себя роль.
Для подготовки к своей роли Пегги Картер Хейли Этвелл тренировалась шесть дней в неделю.
Элис Ив и Кира Найтли рассматривались на роль Пегги Картер. Эмили Блант отказалась от этой роли.
Во всем мире фильм вышел с полным названием «Капитан Америка: Первый мститель», но только в России, Южной Корее и Украине он появился как «Первый мститель».
Когда Timely Comics начала печатать «Капитана Америку», в адрес создателей комикса стали поступать письма и звонки с угрозами от американских фанатов Гитлера.
Автомобильный дизайнер Даниэль Саймон создал ретромобиль Hydra Schmidt Coupe специально для фильма «Первый мститель». Создавая киноавтомобиль, дизайнер ориентировался на популярные модели конца 40-х годов прошлого века: Mercedes-Benz 540K, Mercedes-Benz G4, Bentley и Duesenberg.

MediaInfo

General
Unique ID : 211134583337232838717868466483953139523 (0x9ED70AA88ED4879582520DF8162FFF43)
Complete name : E:\Мои рипы\Первый мститель\Captain America The First Avenger by_IVAN@.190282.mkv
Format : Matroska
Format version : Version 4 / Version 2
File size : 4.08 GiB
Duration : 2h 4mn
Overall bit rate : 4 700 Kbps
Movie name : Captain America The First Avenger by_IVAN@190282
Encoded date : UTC 2016-02-23 20:28:28
Writing application : mkvmerge v8.8.0 ('Wind at my back') 64bit
Writing library : libebml v1.3.3 + libmatroska v1.4.4
Attachements : cover.jpg
DURATION : 02:02:41.229000000
NUMBER_OF_FRAMES : 1204
NUMBER_OF_BYTES : 40057
_STATISTICS_WRITING_APP : mkvmerge v8.8.0 ('Wind at my back') 64bit
_STATISTICS_WRITING_DATE_UT : 2016-02-23 20:28:28
_STATISTICS_TAGS : BPS DURATION NUMBER_OF_FRAMES NUMBER_OF_BYTES
Video
ID : 1
Format : AVC
Format/Info : Advanced Video Codec
Format profile : High@L4.1
Format settings, CABAC : Yes
Format settings, ReFrames : 11 frames
Codec ID : V_MPEG4/ISO/AVC
Duration : 2h 4mn
Bit rate : 3 711 Kbps
Width : 1 148 pixels
Height : 488 pixels
Display aspect ratio : 2.35:1
Frame rate mode : Constant
Frame rate : 23.976 fps
Color space : YUV
Chroma subsampling : 4:2:0
Bit depth : 8 bits
Scan type : Progressive
Bits/(Pixel*Frame) : 0.276
Stream size : 3.22 GiB (79%)
Title : Captain America The First Avenger by_IVAN@190282
Writing library : x264 core 148 r2665kMod a01e339
Encoding settings : cabac=1 / ref=11 / deblock=1:-3:-2 / analyse=0x3:0x133 / me=umh / subme=11 / psy=1 / fade_compensate=0.00 / psy_rd=1.00:0.05 / mixed_ref=1 / me_range=48 / chroma_me=1 / trellis=2 / 8x8dct=1 / cqm=0 / deadzone=21,11 / fast_pskip=0 / chroma_qp_offset=-3 / threads=6 / lookahead_threads=6 / sliced_threads=0 / nr=0 / decimate=1 / interlaced=0 / bluray_compat=0 / constrained_intra=0 / fgo=0 / bframes=16 / b_pyramid=2 / b_adapt=2 / b_bias=0 / direct=3 / weightb=1 / open_gop=0 / weightp=2 / keyint=240 / keyint_min=23 / scenecut=40 / intra_refresh=0 / rc_lookahead=60 / rc=crf / mbtree=0 / crf=17.0000 / qcomp=0.60 / qpmin=0 / qpmax=69 / qpstep=4 / vbv_maxrate=50000 / vbv_bufsize=62500 / crf_max=0.0 / nal_hrd=none / filler=0 / ip_ratio=1.40 / pb_ratio=1.30 / aq=3:0.70
Language : English
Default : Yes
Forced : No
Color range : Limited
Color primaries : BT.709
Transfer characteristics : BT.709
Matrix coefficients : BT.709
DURATION : 02:04:11.569000000
NUMBER_OF_FRAMES : 178659
NUMBER_OF_BYTES : 3541364861
_STATISTICS_WRITING_APP : mkvmerge v8.8.0 ('Wind at my back') 64bit
_STATISTICS_WRITING_DATE_UT : 2016-02-23 20:28:28
_STATISTICS_TAGS : BPS DURATION NUMBER_OF_FRAMES NUMBER_OF_BYTES
Audio #1
ID : 2
Format : AC-3
Format/Info : Audio Coding 3
Mode extension : CM (complete main)
Format settings, Endianness : Big
Codec ID : A_AC3
Duration : 2h 4mn
Bit rate mode : Constant
Bit rate : 448 Kbps
Channel(s) : 6 channels
Channel positions : Front: L C R, Side: L R, LFE
Sampling rate : 48.0 KHz
Compression mode : Lossy
Stream size : 398 MiB (10%)
Title : Dub Bluray CEE
Default : Yes
Forced : No
Audio #2
ID : 3
Format : AC-3
Format/Info : Audio Coding 3
Mode extension : CM (complete main)
Format settings, Endianness : Big
Codec ID : A_AC3
Duration : 2h 4mn
Bit rate mode : Constant
Bit rate : 448 Kbps
Channel(s) : 6 channels
Channel positions : Front: L C R, Side: L R, LFE
Sampling rate : 48.0 KHz
Compression mode : Lossy
Stream size : 398 MiB (10%)
Title : Eng
Language : English
Default : No
Forced : No
Text #1
ID : 4
Format : UTF-8
Codec ID : S_TEXT/UTF8
Codec ID/Info : UTF-8 Plain Text
Title : Rus
Default : No
Forced : No
Text #2
ID : 5
Format : UTF-8
Codec ID : S_TEXT/UTF8
Codec ID/Info : UTF-8 Plain Text
Title : Eng
Language : English
Default : No
Forced : No
Menu
00:00:00.000 : :Chapter 1
00:08:12.158 : :Chapter 2
00:14:56.813 : :Chapter 3
00:24:21.543 : :Chapter 4
00:30:39.129 : :Chapter 5
00:38:39.859 : :Chapter 6
00:45:52.166 : :Chapter 7
00:51:58.157 : :Chapter 8
00:57:55.639 : :Chapter 9
01:03:59.294 : :Chapter 10
01:12:22.588 : :Chapter 11
01:19:10.663 : :Chapter 12
01:28:27.052 : :Chapter 13
01:33:53.002 : :Chapter 14
01:42:20.343 : :Chapter 15
01:50:45.055 : :Chapter 16
01:53:46.319 : :Chapter 17

x264 log

VIDEO ENCODING
x264 [info]: frame I:1411 Avg QP:14.94 size: 87479 PSNR Mean Y:48.45 U:51.45 V:52.04 Avg:49.28 Global:48.76
x264 [info]: frame P:41380 Avg QP:16.46 size: 37127 PSNR Mean Y:46.81 U:50.26 V:50.87 Avg:47.71 Global:47.09
x264 [info]: frame B:135868 Avg QP:18.50 size: 13849 PSNR Mean Y:45.85 U:49.74 V:50.50 Avg:46.82 Global:46.08
x264 [info]: consecutive B-frames: 3.4% 3.4% 13.2% 14.7% 15.0% 38.9% 4.3% 1.1% 1.0% 0.7% 0.7% 0.4% 0.9% 1.2% 0.4% 0.1% 0.5%
x264 [total]: encoded 178659 frames, 5.13 fps, 3802.01 kb/s, duration 9:40:21.84

Скриншот c названием фильма

Скриншоты

Убедительная просьба пожалуйста кто скачал не бросайте раздачу!!!
 GOLD TORRENT! DOWNLOAD TRAFFIC DOES NOT CONSIDER! 
Torrent: Registered [ 2017-10-06 07:41 ]   · 0EFB95983FFA34B30A2BF4AA607615BF826109C7

Download .torrent

Download

11 KB

Status: checked
Completed: 0 times
Size: 4.08 GB
Поделиться:
terms.php
[Profile] [PM]
Display posts:    
Reply to topic

Current time is: 28-Sep 07:31

All times are UTC + 3



You cannot post new topics in this forum
You cannot reply to topics in this forum
You cannot edit your posts in this forum
You cannot delete your posts in this forum
You cannot vote in polls in this forum
You cannot attach files in this forum
You can download files in this forum