Дракула / Dracula Untold (Гари Шор / Gary Shore) [2014, США, Ужасы, Фэнтези, Боевик, Драма, BDRip-AVC] Dub + Sub Rus, Eng + Original Eng

Reply to topic
DL-List and Torrent activity
Size:  3.34 GB   |    Registered:  4 months 21 day   |    Completed:  0 times

Seeder not seen: Never

 
   
 
 
Author Message

admin ®

Gender: Male

Longevity: 3 years 1 month

Posts: 10044

Post 06-Oct-2017 07:23

[Quote]

ДракулаDracula«Легенда обретёт бессмертие»

Страна: США
Жанр: Ужасы, Фэнтези, Боевик, Драма
Год выпуска: 2014
Продолжительность: 01:32:08
Перевод: Профессиональный (дублированный) [Blu-ray CEE]
Субтитры: русские,английские
Оригинальная аудиодорожка: английский
Режиссер: Гари Шор / Gary Shore
В ролях: Люк Эванс, Сара Гадон, Доминик Купер, Арт Паркинсон, Чарльз Дэнс, Дайармейд Мерта, Пол Кэй, Уильям Хьюстон, Ной Хантли, Ронан Вайберт
Описание: Влад Дракула был величайшим правителем, доблестным воином и страстным мужчиной. Но судьба свела его с врагом, коварство которого не знало границ. И тогда Дракула заключил сделку – нечеловеческая сила в обмен на самую малость – бессмертную душу…
Доп. информация:
Релиз группы:
Сохранены оригинальные главы как на Bluray
Качество видео: BDRip-AVC | Дракула / Dracula Untold (2014) Blu-ray CEE 1080p AVC DTS 5.1 | HD club
Формат видео: MKV
Видео: 1152x480 (2.40:1), 23,976 fps, 4192 Кbps, 0.316 bit/pixe
Аудио: 48 kHz, AC3 Dolby Digital, 3/2 (L,C,R,l,r) + LFE ch, ~448.00 kbps avg | DUB
Аудио 2: 48 kHz, AC3 Dolby Digital, 3/2 (L,C,R,l,r) + LFE ch, ~448.00 kbps avg | ENG
Формат субтитров: softsub (SRT)
Доп. информация о субтитрах: отключаемые

MediaInfo

General
Unique ID : 189230874388875238229779269915845060684 (0x8E5C8A6DDBD6DB24A1ECCA95364BE84C)
Complete name : E:\Мои рипы\Дракула\Dracula Untold by_IVAN@190282.mkv
Format : Matroska
Format version : Version 4 / Version 2
File size : 3.34 GiB
Duration : 1h 32mn
Overall bit rate : 5 191 Kbps
Encoded date : UTC 2016-02-27 08:34:20
Writing application : mkvmerge v8.8.0 ('Wind at my back') 64bit
Writing library : libebml v1.3.3 + libmatroska v1.4.4
Attachements : cover.jpg
DURATION : 01:24:03.246000000
NUMBER_OF_FRAMES : 956
NUMBER_OF_BYTES : 23149
_STATISTICS_WRITING_APP : mkvmerge v8.8.0 ('Wind at my back') 64bit
_STATISTICS_WRITING_DATE_UT : 2016-02-27 08:34:20
_STATISTICS_TAGS : BPS DURATION NUMBER_OF_FRAMES NUMBER_OF_BYTES
Video
ID : 1
Format : AVC
Format/Info : Advanced Video Codec
Format profile : High@L4.1
Format settings, CABAC : Yes
Format settings, ReFrames : 13 frames
Codec ID : V_MPEG4/ISO/AVC
Duration : 1h 32mn
Bit rate : 4 192 Kbps
Width : 1 152 pixels
Height : 480 pixels
Display aspect ratio : 2.40:1
Frame rate mode : Constant
Frame rate : 23.976 fps
Color space : YUV
Chroma subsampling : 4:2:0
Bit depth : 8 bits
Scan type : Progressive
Bits/(Pixel*Frame) : 0.316
Stream size : 2.70 GiB (81%)
Writing library : x264 core 144 r2525kMod 40bb568
Encoding settings : cabac=1 / ref=13 / deblock=1:-3:-3 / analyse=0x3:0x113 / me=umh / subme=11 / psy=1 / fade_compensate=0.00 / psy_rd=1.00:0.15 / mixed_ref=1 / me_range=48 / chroma_me=1 / trellis=2 / 8x8dct=1 / cqm=0 / deadzone=21,11 / fast_pskip=0 / chroma_qp_offset=0 / threads=6 / lookahead_threads=6 / sliced_threads=0 / slices=10 / nr=0 / decimate=1 / interlaced=0 / bluray_compat=0 / constrained_intra=0 / fgo=0 / bframes=16 / b_pyramid=2 / b_adapt=2 / b_bias=0 / direct=1 / weightb=1 / open_gop=1 / weightp=2 / keyint=240 / keyint_min=23 / scenecut=40 / intra_refresh=0 / rc_lookahead=40 / rc=crf / mbtree=0 / crf=16.8000 / qcomp=0.60 / qpmin=0 / qpmax=69 / qpstep=4 / vbv_maxrate=50000 / vbv_bufsize=62500 / crf_max=0.0 / nal_hrd=none / filler=0 / ip_ratio=1.40 / pb_ratio=1.30 / aq=1:1.00
Default : Yes
Forced : No
Color range : Limited
Color primaries : BT.709
Transfer characteristics : BT.709
Matrix coefficients : BT.709
Audio #1
ID : 2
Format : AC-3
Format/Info : Audio Coding 3
Mode extension : CM (complete main)
Format settings, Endianness : Big
Codec ID : A_AC3
Duration : 1h 32mn
Bit rate mode : Constant
Bit rate : 448 Kbps
Channel(s) : 6 channels
Channel positions : Front: L C R, Side: L R, LFE
Sampling rate : 48.0 KHz
Compression mode : Lossy
Stream size : 295 MiB (9%)
Title : Dub
Default : Yes
Forced : No
Audio #2
ID : 3
Format : AC-3
Format/Info : Audio Coding 3
Mode extension : CM (complete main)
Format settings, Endianness : Big
Codec ID : A_AC3
Duration : 1h 32mn
Bit rate mode : Constant
Bit rate : 448 Kbps
Channel(s) : 6 channels
Channel positions : Front: L C R, Side: L R, LFE
Sampling rate : 48.0 KHz
Compression mode : Lossy
Stream size : 295 MiB (9%)
Title : Eng
Default : No
Forced : No
Text #1
ID : 4
Format : UTF-8
Codec ID : S_TEXT/UTF8
Codec ID/Info : UTF-8 Plain Text
Title : Rus
Default : No
Forced : No
Text #2
ID : 5
Format : UTF-8
Codec ID : S_TEXT/UTF8
Codec ID/Info : UTF-8 Plain Text
Title : Eng
Default : No
Forced : No
Menu
00:00:00.000 : en:Chapter 1
00:04:07.497 : en:Chapter 2
00:07:20.774 : en:Chapter 3
00:11:33.024 : en:Chapter 4
00:16:30.907 : en:Chapter 5
00:22:53.872 : en:Chapter 6
00:30:23.654 : en:Chapter 7
00:34:16.971 : en:Chapter 8
00:38:57.251 : en:Chapter 9
00:43:00.577 : en:Chapter 10
00:47:03.947 : en:Chapter 11
00:53:16.943 : en:Chapter 12
00:57:40.039 : en:Chapter 13
01:00:47.518 : en:Chapter 14
01:04:30.242 : en:Chapter 15
01:09:12.398 : en:Chapter 16
01:12:47.822 : en:Chapter 17
01:17:12.085 : en:Chapter 18
01:21:52.867 : en:Chapter 19
01:25:02.764 : en:Chapter 20

x264 log

VIDEO ENCODING
x264 [info]: frame I:881 Avg QP:14.81 size: 91762
x264 [info]: frame P:30176 Avg QP:16.22 size: 39961
x264 [info]: frame B:101492 Avg QP:17.33 size: 16540
x264 [info]: consecutive B-frames: 3.1% 3.6% 13.5% 11.5% 14.2% 40.6% 5.3% 1.4% 1.8% 1.3% 1.2% 0.7% 0.7% 0.7% 0.3% 0.1% 0.3%
x264 [info]: kb/s:4291.14
x264 [total]: encoded 132549 frames, 3.79 fps, 4291.14 kb/s, duration 9:43:38.99

Знаете ли вы что

• Съемки, начавшиеся 5 августа 2013 года, проходили в Северной Ирландии. 5 и 6 августа они проходили в парке Ро Вэлли Кантри.
• Эбби Корниш отказалась от предложения исполнить главную женскую роль.
• На роль, которая досталась Люку Эвансу, рассматривался Сэм Уортингтон.
• Изначально Саманта Баркс была взята на роль Бабы-яги, также роль в фильме получил Чарли Кокс. Но в итоге все сцены с участием их персонажей были удалены.

Ошибки в фильме

• В одном из эпизодов князь Дракула и султан Мехмед пьют кофе. Влад Дракула жил в XV веке, а кофе появился в Османской империи в качестве напитка только в XVI веке.
• После того как Влад побеждает Мехмеда, Влад кусает его и пьет его кровь. Но затем, когда Мехмед падает на землю, очень хорошо видно его горло, на котором нет ни крови, ни следов от укуса.

Скриншот c названием фильма

Скриншоты

Убедительная просьба пожалуйста кто скачал не бросайте раздачу!!!
 GOLD TORRENT! DOWNLOAD TRAFFIC DOES NOT CONSIDER! 
Torrent: Registered [ 2020-06-06 07:18 ]   · 0403847B65C5DCBD42E8AA89014BFF28AD0C628D

Download .torrent

Download

17 KB

Status: checked
Completed: 0 times
Size: 3.34 GB
Поделиться:
terms.php
[Profile] [PM]
Display posts:    
Reply to topic

Current time is: 28-Oct 03:40

All times are UTC + 3



You cannot post new topics in this forum
You cannot reply to topics in this forum
You cannot edit your posts in this forum
You cannot delete your posts in this forum
You cannot vote in polls in this forum
You cannot attach files in this forum
You can download files in this forum