Уличный кот по кличке Боб / A Street Cat Named Bob (Роджер Споттисвуд / Roger Spottiswoode) [2016, Великобритания, драма, комедия, семейный, биография, BDRip-AVC] MVO + Sub Rus, Eng + Original Eng

Reply to topic
DL-List and Torrent activity
Size:  3.68 GB   |    Registered:  3 months 22 days   |    Completed:  0 times

Seeder not seen: Never

 
   
 
 
Author Message

admin ®

Gender: Male

Longevity: 3 years

Posts: 10018

Post 01-Oct-2017 05:28

[Quote]

Уличный кот по кличке БобA Street Cat Named Bob«Sometimes it takes nine lives to save one»

Страна: Великобритания
Жанр: Драма, комедия, семейный, биография
Год выпуска: 2016
Продолжительность: 01:42:47
Перевод: Профессиональный (многоголосый закадровый) Bluray CEE
Субтитры: русские,английские
Оригинальная аудиодорожка: английский
Режиссер: Роджер Споттисвуд / Roger Spottiswoode
В ролях: Люк Тредэвэй, Bob the Cat, Рута Гедминтас, Джоанн Фроггатт, Энтони Хэд, Даррен Эванс, Тони Джайавардена, Адам Ричез, Льюэлла Гидеон, Лоррейн Эшборн, Акбар Курта, Джон Хеншоу
Описание: Рассказ о том, как Джеймс Боуэн, восстанавливающийся от наркотической зависимости уличный музыкант, встретил рыжего уличного кота и его жизнь изменилась в лучшую сторону.
Доп. информация:
Релиз группы:
Сохранены оригинальные главы как на Bluray
Качество видео: BDRip-AVC | Уличный кот по кличке Боб / A Street Cat Named Bob (2016) Blu-ray CEE 1080p AVC DD5.1 | HD club
Формат видео: MKV
Видео: 1152x482 (2:40:1), 23,976 fps, 4230 Кbps, 0.318 bit/pixe
Аудио: 48 kHz, AC3 Dolby Digital, 3/2 (L,C,R,l,r) + LFE ch, ~448.00 kbps avg MVO
Аудио 2: 48 kHz, AC3 Dolby Digital, 3/2 (L,C,R,l,r) + LFE ch, ~448.00 kbps avg ENG
Формат субтитров: softsub (SRT)
Доп. информация о субтитрах: отключаемые srt

Знаете ли Вы что

• В основу картины положена одноимённая автобиографическая книга лондонского писателя и музыканта Джеймса Боуэна.
• Книга Джеймса Боуэна по которой снят фильм была переведена на более чем 30 языков и провела свыше 76 недель на вершине списка бестселлеров The Sunday Times.
• Джеймс Боуэн снялся в небольшом эпизоде в фильме, где берет автограф и благодарит за книгу своего героя.
• В этом фильме кот по кличке Боб сыграл самого себя.

MediaInfo

General
Unique ID : 206562027703610059179587563423195585415 (0x9B6666428973A4298FBFA60DD661DB87)
Complete name : E:\Мои рипы\Уличный кот по кличке Боб\A Street Cat Named Bob by_IVAN@190282.mkv
Format : Matroska
Format version : Version 4 / Version 2
File size : 3.68 GiB
Duration : 1 h 42 min
Overall bit rate : 5 128 kb/s
Movie name : A Street Cat Named Bob by_IVAN@190282
Encoded date : UTC 2017-03-04 19:10:21
Writing application : mkvmerge v9.9.0 ('Pick Up') 64bit
Writing library : libebml v1.3.4 + libmatroska v1.4.5
Cover : Yes
Attachments : cover.jpg
Video
ID : 1
Format : AVC
Format/Info : Advanced Video Codec
Format profile : High@L4.1
Format settings, CABAC : Yes
Format settings, ReFrames : 11 frames
Codec ID : V_MPEG4/ISO/AVC
Duration : 1 h 42 min
Bit rate : 4 230 kb/s
Width : 1 152 pixels
Height : 482 pixels
Display aspect ratio : 2.40:1
Frame rate mode : Constant
Frame rate : 23.976 (24000/1001) FPS
Color space : YUV
Chroma subsampling : 4:2:0
Bit depth : 8 bits
Scan type : Progressive
Bits/(Pixel*Frame) : 0.318
Stream size : 3.04 GiB (82%)
Title : A Street Cat Named Bob by_IVAN@190282
Writing library : x264 core 148 r2744kMod b97ae06
Encoding settings : cabac=1 / ref=11 / deblock=1:-3:-3 / analyse=0x3:0x113 / me=umh / subme=11 / psy=1 / fade_compensate=0.00 / psy_rd=1.00:0.05 / mixed_ref=1 / me_range=48 / chroma_me=1 / trellis=2 / 8x8dct=1 / cqm=0 / deadzone=21,11 / fast_pskip=0 / chroma_qp_offset=-3 / threads=6 / lookahead_threads=6 / sliced_threads=0 / nr=0 / decimate=1 / interlaced=0 / bluray_compat=0 / constrained_intra=0 / bframes=16 / b_pyramid=2 / b_adapt=2 / b_bias=0 / direct=3 / weightb=1 / open_gop=0 / weightp=2 / keyint=240 / keyint_min=23 / scenecut=40 / intra_refresh=0 / rc_lookahead=60 / rc=crf / mbtree=0 / crf=16.4000 / qcomp=0.60 / qpmin=0 / qpmax=69 / qpstep=4 / vbv_maxrate=50000 / vbv_bufsize=62500 / crf_max=0.0 / nal_hrd=none / filler=0 / ip_ratio=1.40 / pb_ratio=1.30 / aq=3:0.70
Language : English
Default : Yes
Forced : No
Color range : Limited
Color primaries : BT.709
Transfer characteristics : BT.709
Matrix coefficients : BT.709
Audio #1
ID : 2
Format : AC-3
Format/Info : Audio Coding 3
Mode extension : CM (complete main)
Format settings, Endianness : Big
Codec ID : A_AC3
Duration : 1 h 42 min
Bit rate mode : Constant
Bit rate : 448 kb/s
Channel(s) : 6 channels
Channel positions : Front: L C R, Side: L R, LFE
Sampling rate : 48.0 kHz
Frame rate : 31.250 FPS (1536 spf)
Bit depth : 16 bits
Compression mode : Lossy
Stream size : 329 MiB (9%)
Title : Mvo
Default : Yes
Forced : No
Audio #2
ID : 3
Format : AC-3
Format/Info : Audio Coding 3
Mode extension : CM (complete main)
Format settings, Endianness : Big
Codec ID : A_AC3
Duration : 1 h 42 min
Bit rate mode : Constant
Bit rate : 448 kb/s
Channel(s) : 6 channels
Channel positions : Front: L C R, Side: L R, LFE
Sampling rate : 48.0 kHz
Frame rate : 31.250 FPS (1536 spf)
Bit depth : 16 bits
Compression mode : Lossy
Stream size : 329 MiB (9%)
Title : Eng
Language : English
Default : No
Forced : No
Text #1
ID : 4
Format : UTF-8
Codec ID : S_TEXT/UTF8
Codec ID/Info : UTF-8 Plain Text
Duration : 1 h 37 min
Bit rate : 1 b/s
Count of elements : 18
Stream size : 810 Bytes (0%)
Title : Rus forsed
Default : Yes
Forced : No
Text #2
ID : 5
Format : UTF-8
Codec ID : S_TEXT/UTF8
Codec ID/Info : UTF-8 Plain Text
Duration : 1 h 41 min
Bit rate : 88 b/s
Count of elements : 1421
Stream size : 66.1 KiB (0%)
Title : Rus
Default : No
Forced : No
Text #3
ID : 6
Format : UTF-8
Codec ID : S_TEXT/UTF8
Codec ID/Info : UTF-8 Plain Text
Duration : 1 h 40 min
Bit rate : 55 b/s
Count of elements : 1394
Stream size : 40.8 KiB (0%)
Title : Eng
Language : English
Default : No
Forced : No
Text #4
ID : 7
Format : UTF-8
Codec ID : S_TEXT/UTF8
Codec ID/Info : UTF-8 Plain Text
Duration : 1 h 41 min
Bit rate : 70 b/s
Count of elements : 1804
Stream size : 52.4 KiB (0%)
Title : Eng SDH
Language : English
Default : No
Forced : No
Menu
00:00:00.000 : en:00:00:00.000
00:06:55.164 : en:00:06:55.164
00:11:37.071 : en:00:11:37.071
00:18:52.881 : en:00:18:52.881
00:28:30.250 : en:00:28:30.250
00:31:36.895 : en:00:31:36.895
00:37:52.061 : en:00:37:52.061
00:45:03.242 : en:00:45:03.242
00:49:39.810 : en:00:49:39.810
00:54:35.063 : en:00:54:35.063
01:03:16.000 : en:01:03:16.000
01:07:13.821 : en:01:07:13.821
01:11:18.774 : en:01:11:18.774
01:19:17.502 : en:01:19:17.502
01:27:15.897 : en:01:27:15.897
01:34:30.665 : en:01:34:30.665

x264 log

VIDEO ENCODING
x264 [info]: frame I:1205 Avg QP:15.03 size: 88486 PSNR Mean Y:48.08 U:51.08 V:51.26 Avg:48.86 Global:48.53
x264 [info]: frame P:36470 Avg QP:16.67 size: 38647 PSNR Mean Y:46.73 U:50.26 V:50.40 Avg:47.59 Global:47.07
x264 [info]: frame B:110207 Avg QP:18.80 size: 15833 PSNR Mean Y:45.61 U:49.44 V:49.74 Avg:46.54 Global:46.08
x264 [info]: consecutive B-frames: 3.6% 4.5% 11.8% 26.3% 18.0% 26.1% 4.1% 3.5% 0.7% 0.4% 0.3% 0.4% 0.2% 0.1% 0.0% 0.0% 0.0%
x264 [total]: encoded 147882 frames, 1.67 fps, 4279.69 kb/s, duration 24:33:28.90

Скриншот c названием фильма

Скриншоты

Убедительная просьба пожалуйста кто скачал не бросайте раздачу!!!
 GOLD TORRENT! DOWNLOAD TRAFFIC DOES NOT CONSIDER! 
Torrent: Registered [ 2020-06-07 03:16 ]   · 1F5E2C2421798FF5C066C9F56A801E93209C024C

Download .torrent

Download

19 KB

Status: checked
Completed: 0 times
Size: 3.68 GB
Поделиться:
terms.php
[Profile] [PM]
Display posts:    
Reply to topic

Current time is: 29-Sep 09:34

All times are UTC + 3



You cannot post new topics in this forum
You cannot reply to topics in this forum
You cannot edit your posts in this forum
You cannot delete your posts in this forum
You cannot vote in polls in this forum
You cannot attach files in this forum
You can download files in this forum