Кикбоксер / Кикбоксер: Возмездие / Kickboxer Vengeance (Джон Стокуэлл / John Stockwell) [2016, США, Боевик, BDRip-AVC] MVO + Original Eng

Reply to topic
DL-List and Torrent activity
Size:  2.67 GB   |    Registered:  2 years 11 months   |    Completed:  0 times

Seeder not seen: Never

 
   
 
 
Author Message

admin ®

Gender: Male

Longevity: 3 years

Posts: 10018

Post 06-Oct-2017 05:55

[Quote]

Кикбоксер / Кикбоксер: ВозмездиеKickboxer Vengeance

Страна: США
Жанр: Боевик
Год выпуска: 2016
Продолжительность: 01:30:17
Перевод: Профессиональный (многоголосый закадровый) iTunes
Субтитры: нет
Оригинальная аудиодорожка: английский
Режиссер: Джон Стокуэлл / John Stockwell
В ролях: Ален Мусси, Жорж Сен-Пьер, Т.Дж. Сторм, Мэттью Зифф, Сэм Медина, Дэйв Батиста, Сью-Линн Ансари, Даррен Шалави, Джина Карано, Хоун Трэн
Описание: Сюжет разворачивается вокруг братьев из калифорнийской династии бойцов Эрика и Курта Слоан. Эрик погибает в одном из поединков в Гонконге. Узнав об этом, Курт едет в Таиланд к своему наставнику, с помощью которого рассчитывает обрести силу воли, чтобы отомстить за смерть брата.
Доп. информация:
Релиз группы:
Сохранены оригинальные главы как на Bluray
Качество видео: BDRip-AVC |KICKBOXER_VENGEANCE_REMUX_HDCLUB |
Формат видео: MKV
Видео: 1152x480 (2:40:1), 23,976 fps, 3316 Кbps, 0.250 bit/pixe
Аудио: 48 kHz, AC3 Dolby Digital, 3/2 (L,C,R,l,r) + LFE ch, ~384.00 kbps avg MVO
Аудио 2: 48 kHz, AC3 Dolby Digital, 3/2 (L,C,R,l,r) + LFE ch, ~448.00 kbps avg ENG

MediaInfo

General
Unique ID : 189373990117856988691900979770174519266 (0x8E781A9450A3F416A6EEB595B37CB7E2)
Complete name : E:\Мои рипы\Кикбоксер Возмездие\Kickboxer Vengeance by_IVAN@190282.mkv
Format : Matroska
Format version : Version 4 / Version 2
File size : 2.67 GiB
Duration : 1h 30mn
Overall bit rate : 4 232 Kbps
Movie name : Kickboxer Vengeance by_IVAN@190282
Encoded date : UTC 2017-04-25 22:37:14
Writing application : mkvmerge v11.0.0 ('Alive') 64bit
Writing library : libebml v1.3.4 + libmatroska v1.4.5
DURATION : 01:30:24.736000000
NUMBER_OF_FRAMES : 169523
NUMBER_OF_BYTES : 303785216
_STATISTICS_WRITING_APP : mkvmerge v11.0.0 ('Alive') 64bit
_STATISTICS_WRITING_DATE_UTC : 2017-04-25 22:37:14
_STATISTICS_TAGS : BPS DURATION NUMBER_OF_FRAMES NUMBER_OF_BYTES
Attachment : Yes
Video
ID : 1
Format : AVC
Format/Info : Advanced Video Codec
Format profile : High@L4.1
Format settings, CABAC : Yes
Format settings, ReFrames : 11 frames
Codec ID : V_MPEG4/ISO/AVC
Duration : 1h 30mn
Bit rate : 3 316 Kbps
Width : 1 152 pixels
Height : 480 pixels
Display aspect ratio : 2.40:1
Frame rate mode : Constant
Frame rate : 23.976 fps
Color space : YUV
Chroma subsampling : 4:2:0
Bit depth : 8 bits
Scan type : Progressive
Bits/(Pixel*Frame) : 0.250
Stream size : 2.10 GiB (78%)
Title : Kickboxer Vengeance by_IVAN@190282
Writing library : x264 core 148 r2762 90a61ec
Encoding settings : cabac=1 / ref=11 / deblock=1:-3:-3 / analyse=0x3:0x113 / me=umh / subme=11 / psy=1 / psy_rd=1.00:0.05 / mixed_ref=1 / me_range=48 / chroma_me=1 / trellis=2 / 8x8dct=1 / cqm=0 / deadzone=21,11 / fast_pskip=0 / chroma_qp_offset=-3 / threads=6 / lookahead_threads=6 / sliced_threads=0 / nr=0 / decimate=1 / interlaced=0 / bluray_compat=0 / constrained_intra=0 / bframes=16 / b_pyramid=2 / b_adapt=2 / b_bias=0 / direct=3 / weightb=1 / open_gop=0 / weightp=2 / keyint=240 / keyint_min=23 / scenecut=40 / intra_refresh=0 / rc_lookahead=60 / rc=crf / mbtree=0 / crf=17.4 / qcomp=0.60 / qpmin=0 / qpmax=69 / qpstep=4 / vbv_maxrate=50000 / vbv_bufsize=62500 / crf_max=0.0 / nal_hrd=none / filler=0 / ip_ratio=1.40 / pb_ratio=1.30 / aq=3:0.70
Language : English
Default : Yes
Forced : No
Color primaries : BT.709
Transfer characteristics : BT.709
Matrix coefficients : BT.709
DURATION : 01:30:25.712000000
NUMBER_OF_FRAMES : 130087
NUMBER_OF_BYTES : 2306262462
_STATISTICS_WRITING_APP : mkvmerge v11.0.0 ('Alive') 64bit
_STATISTICS_WRITING_DATE_UTC : 2017-04-25 22:37:14
_STATISTICS_TAGS : BPS DURATION NUMBER_OF_FRAMES NUMBER_OF_BYTES
Audio #1
ID : 2
Format : AC-3
Format/Info : Audio Coding 3
Mode extension : CM (complete main)
Format settings, Endianness : Big
Codec ID : A_AC3
Duration : 1h 30mn
Bit rate mode : Constant
Bit rate : 384 Kbps
Channel(s) : 6 channels
Channel positions : Front: L C R, Side: L R, LFE
Sampling rate : 48.0 KHz
Bit depth : 16 bits
Compression mode : Lossy
Stream size : 249 MiB (9%)
Title : Mvo
Default : Yes
Forced : No
Audio #2
ID : 3
Format : AC-3
Format/Info : Audio Coding 3
Mode extension : CM (complete main)
Format settings, Endianness : Big
Codec ID : A_AC3
Duration : 1h 30mn
Bit rate mode : Constant
Bit rate : 448 Kbps
Channel(s) : 6 channels
Channel positions : Front: L C R, Side: L R, LFE
Sampling rate : 48.0 KHz
Bit depth : 16 bits
Compression mode : Lossy
Stream size : 290 MiB (11%)
Title : Eng
Language : English
Default : No
Forced : No
Menu
00:00:00.000 : en:00:00:00.000
00:09:58.806 : en:00:09:58.806
00:19:27.499 : en:00:19:27.499
00:30:01.382 : en:00:30:01.382
00:39:43.338 : en:00:39:43.338
00:50:19.181 : en:00:50:19.181
01:00:29.416 : en:01:00:29.416
01:08:08.833 : en:01:08:08.833
01:14:56.823 : en:01:14:56.823
01:24:47.289 : en:01:24:47.289
01:30:16.033 : en:01:30:16.033

x264 log

VIDEO ENCODING
x264 [info]: frame I:1004 Avg QP:15.27 size: 94623 PSNR Mean Y:47.90 U:52.20 V:51.89 Avg:48.69 Global:47.71
x264 [info]: frame P:34272 Avg QP:17.03 size: 32247 PSNR Mean Y:46.75 U:52.35 V:52.10 Avg:47.58 Global:46.44
x264 [info]: frame B:94811 Avg QP:19.31 size: 11666 PSNR Mean Y:45.83 U:51.34 V:51.17 Avg:46.73 Global:45.40
x264 [info]: consecutive B-frames: 5.9% 5.0% 12.6% 18.6% 19.0% 30.5% 3.9% 0.9% 0.8% 0.5% 0.5% 0.5% 0.4% 0.2% 0.2% 0.1% 0.4%
x264 [total]: encoded 130087 frames, 1.74 fps, 3400.49 kb/s

Скриншот c названием фильма

Скриншоты

Субтитры будут добавлены как только выйдет Bluray CEE,EUR,либо Rus,так как в ремуксе английские субтитры были только на пол фильма и с полным рассинхроном!
Убедительная просьба пожалуйста кто скачал не бросайте раздачу!!!
 GOLD TORRENT! DOWNLOAD TRAFFIC DOES NOT CONSIDER! 
Torrent: Registered [ 2017-10-06 05:55 ]   · B8C4D400A02499F12AD34E4E8BFA76BD6F4E919B

Download .torrent

Download

14 KB

Status: checked
Completed: 0 times
Size: 2.67 GB
Поделиться:
terms.php
[Profile] [PM]
Display posts:    
Reply to topic

Current time is: 30-Sep 05:00

All times are UTC + 3



You cannot post new topics in this forum
You cannot reply to topics in this forum
You cannot edit your posts in this forum
You cannot delete your posts in this forum
You cannot vote in polls in this forum
You cannot attach files in this forum
You can download files in this forum