Отель «Гранд Будапешт» / The Grand Budapest Hotel (Уэс Андерсон / Wes Anderson) [2014, Великобритания, Комедия, детектив, приключения, криминал, BDRip] Dub

Reply to topic
DL-List and Torrent activity
Size:  1.46 GB   |    Registered:  2 years 11 months   |    Completed:  1 time
Seeders:  3  [  0 KB/s  ]   Leechers:  4  [  0 KB/s  ]   Show peers in full details
 
   
 
 
Author Message

admin ®

Gender: Male

Longevity: 3 years

Posts: 10019

Post 01-Oct-2017 05:22

[Quote]

Отель «Гранд Будапешт» / The Grand Budapest Hotel- Год выпуска: 2014
Выпущено: Великобритания, Германия / American Empirical Pictures
Жанр: комедия, детектив, приключения, криминал
Продолжительность: 01:39:54
Перевод: Профессиональный (полное дублирование) BD CEE
Субтитры: нет-Режиссер:
Уэс Андерсон / Wes Anderson-В ролях:
Рэйф Файнс (M. Gustave), Тони Револори (Zero), Сирша Ронан (Agatha), Эдриан Броуди (Dmitri), Уиллем Дефо (Jopling), Ф. Мюррэй Абрахам (Mr. Moustafa), Джуд Лоу (Young Writer), Эдвард Нортон (Henckels), Джефф Голдблюм (Deputy Kovacs), Харви Кейтель (Ludwig), Том Уилкинсон (Author), Матье Амальрик (Serge X.)-Описание:
Фильм рассказывает об увлекательных приключениях легендарного консьержа Густава и его юного друга, портье Зеро Мустафы. Сотрудники гостиницы становятся свидетелями кражи и поисков бесценных картин эпохи Возрождения, борьбы за огромное состояние богатой семьи и… драматических изменений в Европе между двумя кровопролитными войнами XX века.-Релиз группы | IMDB | КиноПоиск |
Качество: BDRip
Формат: AVI
Видео: 704x384 (1.83:1), 23.976 fps, XviD build 73 ~1632 kbps avg, 0.25 bit/pixel
Аудио: 48 kHz, AC3 Dolby Digital, 3/2 (L,C,R,l,r) + LFE ch, ~448.00 kbps avg
-

Скриншоты

MediaInfo

General
Complete name                            : D:\Otel`_Grand_Budapesht_2014_BDRip_by_Dalemake.avi
Format                                   : AVI
Format/Info                              : Audio Video Interleave
File size                                : 1.46 GiB
Duration                                 : 1h 39mn
Overall bit rate                         : 2 090 Kbps
Writing application                      : VirtualDubMod 1.5.10.3 | www.virtualdub-fr.org || (build 2550/release)
Writing library                          : VirtualDubMod build 2550/release
Video
ID                                       : 0
Format                                   : MPEG-4 Visual
Format profile                           : Advanced Simple@L5
Format settings, BVOP                    : 1
Format settings, QPel                    : No
Format settings, GMC                     : No warppoints
Format settings, Matrix                  : Custom
Codec ID                                 : XVID
Codec ID/Hint                            : XviD
Duration                                 : 1h 39mn
Bit rate                                 : 1 633 Kbps
Width                                    : 704 pixels
Height                                   : 384 pixels
Display aspect ratio                     : 1.85:1
Frame rate                               : 23.976 fps
Color space                              : YUV
Chroma subsampling                       : 4:2:0
Bit depth                                : 8 bits
Scan type                                : Progressive
Compression mode                         : Lossy
Bits/(Pixel*Frame)                       : 0.252
Stream size                              : 1.14 GiB (78%)
Writing library                          : XviD 73
Audio
ID                                       : 1
Format                                   : AC-3
Format/Info                              : Audio Coding 3
Mode extension                           : CM (complete main)
Format settings, Endianness              : Big
Codec ID                                 : 2000
Duration                                 : 1h 39mn
Bit rate mode                            : Constant
Bit rate                                 : 448 Kbps
Channel(s)                               : 6 channels
Channel positions                        : Front: L C R, Side: L R, LFE
Sampling rate                            : 48.0 KHz
Bit depth                                : 16 bits
Compression mode                         : Lossy
Stream size                              : 320 MiB (21%)
Alignment                                : Split accross interleaves
Interleave, duration                     : 42 ms (1.00 video frame)
Interleave, preload duration             : 500 ms
-
 GOLD TORRENT! DOWNLOAD TRAFFIC DOES NOT CONSIDER! 
Torrent: Registered [ 2017-10-01 05:22 ]   · F283C2FF1C963D700F2C285BAA7B6E8D85D2AEE2

Download .torrent

Download

15 KB

Status: checked
Completed: 1 times
Size: 1.46 GB
Поделиться:
terms.php
[Profile] [PM]
Display posts:    
Reply to topic

Current time is: 27-Sep 17:06

All times are UTC + 3



You cannot post new topics in this forum
You cannot reply to topics in this forum
You cannot edit your posts in this forum
You cannot delete your posts in this forum
You cannot vote in polls in this forum
You cannot attach files in this forum
You can download files in this forum