Кибер / Blackhat (Майкл Манн / Michael Mann) [2015, США, Боевик, триллер, драма, криминал, детектив, BDRip-AVC] Dub + Sub Rus, Eng + Original Eng

Reply to topic
DL-List and Torrent activity
Size:  4.51 GB   |    Registered:  3 months 12 days   |    Completed:  0 times

Seeder not seen: Never

 
   
 
 
Author Message

admin ®

Gender: Male

Longevity: 2 years 11 months

Posts: 10016

Post 06-Oct-2017 05:41

[Quote]

КиберBlackhat«Вы больше не можете защитить себя»

Страна: США
Студия: Universal
Жанр: Боевик, триллер, драма, криминал, детектив
Год выпуска: 2015
Продолжительность: 02:12:55
Перевод: Профессиональный (дублированный) (дублированный) Blu-ray CEE
Субтитры: русские,английские
Оригинальная аудиодорожка: английский
Режиссер: Майкл Манн / Michael Mann
В ролях: Крис Хемсворт, Ван Лихом, Тан Вэй, Виола Дэвис, Холт МакКэллани, Энди Он, Ричи Костер, Кристиан Борл, Джон Ортис, Йорик ван Вагенинген
Описание:
Спокойная, размеренная жизнь современного мирового пространства. Кажется, что ничто не может нарушить равномерный, плавный ход событий, жизнь настолько механизирована, все рассчитано до мельчайшей детали, что, казалось бы, что может произойти? Какое событие может выбить из колеи столь идеально отлаженную машину? Однако именно разработки в области новейших технологий представляют главную угрозу человечеству. Лучшие ученые умы из США и Китая объединяют силы в борьбе против самой мощной кибернетической атаки.
Доп. информация:
Релиз группы:
Качество видео: BDRip-AVC |Кибер / Blackhat (2015) Blu-ray CEE| HD club
Формат видео: MKV
Видео: 1152x480 (2.40:1), 23,976 fps, 3860 Кbps, 0.291 bit/pixe
Аудио: 48 kHz, AC3 Dolby Digital, 3/2 (L,C,R,l,r) + LFE ch, ~448.00 kbps avg | DUB
Аудио 2: 48 kHz, AC3 Dolby Digital, 3/2 (L,C,R,l,r) + LFE ch, ~448.00 kbps avg | ENG
Формат субтитров: softsub (SRT)
Доп. информация о субтитрах: отключаемые

MediaInfo

General
Unique ID : 199600346059387475115156589034506042334 (0x9629A0DACC206F6F8900BE7C51403BDE)
Complete name : E:\Мои рипы\Кибер\Blackhat by_IVAN@190282.mkv
Format : Matroska
Format version : Version 4 / Version 2
File size : 4.51 GiB
Duration : 2h 12mn
Overall bit rate : 4 852 Kbps
Encoded date : UTC 2016-03-08 10:51:27
Writing application : mkvmerge v8.8.0 ('Wind at my back') 64bit
Writing library : libebml v1.3.3 + libmatroska v1.4.4
Attachements : cover.jpg
DURATION : 02:02:17.622000000
NUMBER_OF_FRAMES : 1157
NUMBER_OF_BYTES : 35873
_STATISTICS_WRITING_APP : mkvmerge v8.8.0 ('Wind at my back') 64bit
_STATISTICS_WRITING_DATE_UT : 2016-03-08 10:51:27
_STATISTICS_TAGS : BPS DURATION NUMBER_OF_FRAMES NUMBER_OF_BYTES
Video
ID : 1
Format : AVC
Format/Info : Advanced Video Codec
Format profile : High@L4.1
Format settings, CABAC : Yes
Format settings, ReFrames : 14 frames
Codec ID : V_MPEG4/ISO/AVC
Duration : 2h 12mn
Bit rate : 3 860 Kbps
Width : 1 152 pixels
Height : 480 pixels
Display aspect ratio : 2.40:1
Frame rate mode : Constant
Frame rate : 23.976 fps
Color space : YUV
Chroma subsampling : 4:2:0
Bit depth : 8 bits
Scan type : Progressive
Bits/(Pixel*Frame) : 0.291
Stream size : 3.58 GiB (80%)
Title : Blackhat by_IVAN@190282
Writing library : x264 core 146 r2538kMod 121396c
Encoding settings : cabac=1 / ref=14 / deblock=1:-3:-2 / analyse=0x3:0x133 / me=umh / subme=11 / psy=1 / fade_compensate=0.00 / psy_rd=1.00:0.00 / mixed_ref=1 / me_range=48 / chroma_me=1 / trellis=2 / 8x8dct=1 / cqm=0 / deadzone=21,11 / fast_pskip=0 / chroma_qp_offset=-2 / threads=6 / lookahead_threads=6 / sliced_threads=0 / nr=0 / decimate=1 / interlaced=0 / bluray_compat=0 / constrained_intra=0 / fgo=0 / bframes=16 / b_pyramid=2 / b_adapt=2 / b_bias=0 / direct=3 / weightb=1 / open_gop=0 / weightp=2 / keyint=240 / keyint_min=23 / scenecut=40 / intra_refresh=0 / rc_lookahead=60 / rc=crf / mbtree=0 / crf=18.0000 / qcomp=0.60 / qpmin=0 / qpmax=69 / qpstep=4 / vbv_maxrate=50000 / vbv_bufsize=62500 / crf_max=0.0 / nal_hrd=none / filler=0 / ip_ratio=1.40 / pb_ratio=1.30 / aq=1:1.10
Default : Yes
Forced : No
Color range : Limited
Color primaries : BT.709
Transfer characteristics : BT.709
Matrix coefficients : BT.709
DURATION : 02:12:55.968000000
NUMBER_OF_FRAMES : 191232
NUMBER_OF_BYTES : 3941891002
_STATISTICS_WRITING_APP : mkvmerge v8.8.0 ('Wind at my back') 64bit
_STATISTICS_WRITING_DATE_UT : 2016-03-08 10:51:27
_STATISTICS_TAGS : BPS DURATION NUMBER_OF_FRAMES NUMBER_OF_BYTES
Audio #1
ID : 2
Format : AC-3
Format/Info : Audio Coding 3
Mode extension : CM (complete main)
Format settings, Endianness : Big
Codec ID : A_AC3
Duration : 2h 12mn
Bit rate mode : Constant
Bit rate : 448 Kbps
Channel(s) : 6 channels
Channel positions : Front: L C R, Side: L R, LFE
Sampling rate : 48.0 KHz
Compression mode : Lossy
Stream size : 426 MiB (9%)
Title : Dub
Language : Russian
Default : Yes
Forced : No
Audio #2
ID : 3
Format : AC-3
Format/Info : Audio Coding 3
Mode extension : CM (complete main)
Format settings, Endianness : Big
Codec ID : A_AC3
Duration : 2h 12mn
Bit rate mode : Constant
Bit rate : 448 Kbps
Channel(s) : 6 channels
Channel positions : Front: L C R, Side: L R, LFE
Sampling rate : 48.0 KHz
Compression mode : Lossy
Stream size : 426 MiB (9%)
Title : Eng
Language : English
Default : No
Forced : No
Text #1
ID : 4
Format : UTF-8
Codec ID : S_TEXT/UTF8
Codec ID/Info : UTF-8 Plain Text
Title : Rus.forsed
Language : Russian
Default : Yes
Forced : No
Text #2
ID : 5
Format : UTF-8
Codec ID : S_TEXT/UTF8
Codec ID/Info : UTF-8 Plain Text
Title : Rus
Language : Russian
Default : No
Forced : No
Text #3
ID : 6
Format : UTF-8
Codec ID : S_TEXT/UTF8
Codec ID/Info : UTF-8 Plain Text
Title : Eng
Language : English
Default : No
Forced : No
Menu
00:00:00.000 : en:Chapter1
00:06:14.457 : en:Chapter2
00:13:43.531 : en:Chapter3
00:20:22.930 : en:Chapter4
00:27:32.317 : en:Chapter5
00:32:58.894 : en:Chapter6
00:37:30.748 : en:Chapter7
00:44:59.655 : en:Chapter8
00:55:02.382 : en:Chapter9
01:00:20.992 : en:Chapter10
01:07:44.602 : en:Chapter11
01:13:24.025 : en:Chapter12
01:20:48.010 : en:Chapter13
01:26:24.262 : en:Chapter14
01:33:39.572 : en:Chapter15
01:38:36.869 : en:Chapter16
01:43:50.391 : en:Chapter17
01:47:19.433 : en:Chapter18
01:54:33.241 : en:Chapter19
02:04:19.494 : en:Chapter20

x264 log

VIDEO ENCODING
x264 [info]: frame I:1352 Avg QP:15.67 size: 66668
x264 [info]: frame P:49069 Avg QP:17.17 size: 20777
x264 [info]: frame B:147184 Avg QP:19.57 size: 6586
x264 [info]: consecutive B-frames: 3.0% 6.1% 12.9% 24.7% 17.3% 26.0% 4.5% 1.6% 1.1% 0.4% 0.6% 0.6% 0.2% 0.3% 0.2% 0.1% 0.2%
x264 [info]: kb/s:3878.69
x264 [total]: encoded 197605 frames, 7.73 fps, 3878.69 kb/s, duration 7:06:02.46

Скриншот c названием фильма

Скриншоты

Убедительная просьба пожалуйста кто скачал не бросайте раздачу!!!
 GOLD TORRENT! DOWNLOAD TRAFFIC DOES NOT CONSIDER! 
Torrent: Registered [ 2020-06-06 07:25 ]   · CDBAC79377F4D27A22766A383CCEE960EB2B5C55

Download .torrent

Download

12 KB

Status: checked
Completed: 0 times
Size: 4.51 GB
Поделиться:
terms.php
[Profile] [PM]
Display posts:    
Reply to topic

Current time is: 18-Sep 13:00

All times are UTC + 3



You cannot post new topics in this forum
You cannot reply to topics in this forum
You cannot edit your posts in this forum
You cannot delete your posts in this forum
You cannot vote in polls in this forum
You cannot attach files in this forum
You can download files in this forum