Джек Ричер 2: Никогда не возвращайся / Jack Reacher: Never Go Back (Эдвард Цвик / Edward Zwick) [2016, Китай, США, Боевик, триллер, криминал, детектив, приключения, BDRip-AVC] Dub + Sub Rus, Eng + Original Eng

Reply to topic
DL-List and Torrent activity
Size:  4.24 GB   |    Registered:  3 months 19 days   |    Completed:  0 times

Seeder not seen: Never

 
   
 
 
Author Message

admin ®

Gender: Male

Longevity: 2 years 11 months

Posts: 10017

Post 06-Oct-2017 05:18

[Quote]

Джек Ричер 2: Никогда не возвращайсяJack Reacher: Never Go Back«Не уступай, не сдавайся, не возвращайся»

Страна: Китай, США
Жанр: Боевик, триллер, криминал, детектив, приключения
Год выпуска: 2016
Продолжительность: 01:58:08
Перевод: Профессиональный (дублированный) Bluray CEE
Субтитры: русские,английские
Оригинальная аудиодорожка: английский
Режиссер: Эдвард Цвик / Edward Zwick
В ролях: Том Круз, Коби Смолдерс, Элдис Ходж, Даника Ярош, Патрик Хьюсингер, Холт МакКэллани, Джудд Лорманд, Кристофер Берри, Хантер Бурк, Джейсон Дуглас
Описание: Экс-военный Джек Ричер приезжает в Вашингтон, чтобы впервые встретиться с майором Сьюзен Тернер, которая возглавила его бывшее подразделение и не раз выручала его в непростых ситуациях. По странному стечению обстоятельств буквально накануне его визита майора арестовывают по обвинению в измене... Ричеру, уверенному в невиновности Сьюзен, предстоит освободить ее и раскрыть заговор, ниточки которого тянутся на самый верх. Стремясь докопаться до правды, он также делает поразительное открытие, способное раз и навсегда изменить его жизнь...
Доп. информация:
Релиз группы:
Сохранены оригинальные главы как на Bluray
Качество видео: BDRip-AVC | Джек Ричер 2: Никогда не возвращайся / Jack Reacher: Never Go Back (2016) Blu-ray CEE 1080p AVC DD5.1 | HD club
Формат видео: MKV
Видео: 1152x482 (2:40:1), 23,976 fps, 4140 Кbps, 0.311 bit/pixe
Аудио: 48 kHz, AC3 Dolby Digital, 3/2 (L,C,R,l,r) + LFE ch, ~448.00 kbps avg DUB
Аудио 2: 48 kHz, AC3 Dolby Digital, 3/2 (L,C,R,l,r) + LFE ch, ~448.00 kbps avg ENG
Формат субтитров: softsub (SRT)
Доп. информация о субтитрах: отключаемые srt

Знаете ли Вы что

• Сюжет основан на 18-й книге серии «Джек Ричер» американского писателя Ли Чайлда.
• Том Круз уже работал с режиссером картины Эдвардом Цвиком в 2003 году (фильм «Последний самурай»).
• Эдвард Цвик был назначен режиссером в мае 2015 года, а о создании сиквела официально объявили в августе того же года.
• Съемки прошли в окрестностях Луизианы и Нового Орлеана.
• Актриса Коби Смолдерс сама выполняла все трюки.
• В фильме «Джек Ричер» 2012 года есть эпизод, в котором кто-то из толпы на автобусной остановке одалживает Джеку бейсболку, чтобы скрыться от полиции. Тот же самый статист появляется и во втором фильме, но уже в роли таксиста в эпизоде, где Джеку нужно спрятаться.
• Ли Чайлд, автор романов, по которым сняты оба фильма о Джеке Ричере, сыграл в фильме «Джек Ричер 2: Никогда не возвращайся» эпизодическую роль сотрудника Администрации транспортной безопасности США, который замечает, что Джек, в исполнении Тома Круза, не похож на фотографию человека на документе, предъявленном при посадке в самолёт. Сотрудник всё равно пропускает главного героя.
• Готовясь к роли Сьюзен, Коби Смолдерс провела 8 недель в занятиях боевыми искусствами.
• После выхода фильма «Джек Ричер» (Кристофер МакКуорри, 2012) на студии вначале собирались экранизировать 14-ю книгу серии о Джеке Ричере «61 час» (2010). Писатель Ли Чайлд, однако, признался, что непреодолимой трудностью стала необходимость организовать в Южной Дакоте огромное покрытое снегом пространство. Когда же на студии прочли роман «Никогда не возвращайся» (2013), было решено остановиться на этой книге, потому что, по словам Ли Чайлда, «Саманта (её роль играет Даника Ярош) органично смотрится рядом с Джеком и Сьюзан, главными героями фильма». Чайлд добавил также, что если когда-нибудь решат снимать третий фильм о Джеке Ричере, то на студии уже решили, что это будет 11-я книга серии «Сплошные проблемы и неприятности» (2007).
• Пока Джек Ричер в исполнении Тома Круза находится в бегах, полицейские сводки описывают его как «белого мужчину, возраст - за сорок». Во время съёмок Крузу было уже за 50.
• Сцены в Вашингтоне снимались в студии в технологии «хромакей» или в Новом Орлеане, штат Луизиана, который изображал столицу США.
• Четвёртый игровой фильм, в котором Том Круз исполняет роль персонажа по имени Джек. Так звали его героев в фэнтези-фильме Ридли Скотта «Легенда» (1985), боевике «Джек Ричер» Кристофера МакКуорри (2012) и фантастическом боевике Джозефа Косински «Обливион» (2013).
• Режиссёр Эдвард Цвик прибыл в Новый Орлеан, штат Луизиана, за несколько недель до появления там съёмочной группы, чтобы лично проверить места будущих съёмок и начать подготовку к съёмкам.
• Количество смертей в фильме: 12.

MediaInfo

General
Unique ID : 221157485078505999461805689247225045860 (0xA66161DE01C5ABA18DB9B8D4BEA76364)
Complete name : D:\Мои рипы\Джек Ричер 2 Никогда не возвращайся\Jack Reacher Never Go Back by_IVAN@190282.mkv
Format : Matroska
Format version : Version 4 / Version 2
File size : 4.24 GiB
Duration : 1h 58mn
Overall bit rate : 5 138 Kbps
Movie name : Jack Reacher Never Go Back by_IVAN@190282
Encoded date : UTC 2017-01-26 11:29:30
Writing application : mkvmerge v9.8.0 ('Kuglblids') 64bit
Writing library : libebml v1.3.4 + libmatroska v1.4.5
Attachements : cover.png
DURATION : 01:51:42.278000000
NUMBER_OF_FRAMES : 1412
NUMBER_OF_BYTES : 41983
_STATISTICS_WRITING_APP : mkvmerge v9.8.0 ('Kuglblids') 64bit
_STATISTICS_WRITING_DATE_UT : 2017-01-26 11:29:30
_STATISTICS_TAGS : BPS DURATION NUMBER_OF_FRAMES NUMBER_OF_BYTES
Video
ID : 1
Format : AVC
Format/Info : Advanced Video Codec
Format profile : High@L4.1
Format settings, CABAC : Yes
Format settings, ReFrames : 11 frames
Codec ID : V_MPEG4/ISO/AVC
Duration : 1h 58mn
Bit rate : 4 140 Kbps
Width : 1 152 pixels
Height : 482 pixels
Display aspect ratio : 2.40:1
Frame rate mode : Constant
Frame rate : 23.976 fps
Color space : YUV
Chroma subsampling : 4:2:0
Bit depth : 8 bits
Scan type : Progressive
Bits/(Pixel*Frame) : 0.311
Stream size : 3.42 GiB (81%)
Title : Jack Reacher Never Go Back by_IVAN@190282
Writing library : x264 core 148 r2721kMod 72d53ab
Encoding settings : cabac=1 / ref=11 / deblock=1:-3:-3 / analyse=0x3:0x113 / me=umh / subme=11 / psy=1 / fade_compensate=0.00 / psy_rd=1.00:0.05 / mixed_ref=1 / me_range=48 / chroma_me=1 / trellis=2 / 8x8dct=1 / cqm=0 / deadzone=21,11 / fast_pskip=0 / chroma_qp_offset=-3 / threads=6 / lookahead_threads=6 / sliced_threads=0 / nr=0 / decimate=1 / interlaced=0 / bluray_compat=0 / constrained_intra=0 / fgo=0 / bframes=16 / b_pyramid=2 / b_adapt=2 / b_bias=0 / direct=3 / weightb=1 / open_gop=0 / weightp=2 / keyint=240 / keyint_min=23 / scenecut=40 / intra_refresh=0 / rc_lookahead=60 / rc=crf / mbtree=0 / crf=17.0000 / qcomp=0.60 / qpmin=0 / qpmax=69 / qpstep=4 / vbv_maxrate=50000 / vbv_bufsize=62500 / crf_max=0.0 / nal_hrd=none / filler=0 / ip_ratio=1.40 / pb_ratio=1.30 / aq=3:0.70
Language : English
Default : Yes
Forced : No
Color range : Limited
Color primaries : BT.709
Transfer characteristics : BT.709
Matrix coefficients : BT.709
DURATION : 01:58:08.957000000
NUMBER_OF_FRAMES : 169965
NUMBER_OF_BYTES : 3756590221
_STATISTICS_WRITING_APP : mkvmerge v9.8.0 ('Kuglblids') 64bit
_STATISTICS_WRITING_DATE_UT : 2017-01-26 11:29:30
_STATISTICS_TAGS : BPS DURATION NUMBER_OF_FRAMES NUMBER_OF_BYTES
Audio #1
ID : 2
Format : AC-3
Format/Info : Audio Coding 3
Mode extension : CM (complete main)
Format settings, Endianness : Big
Codec ID : A_AC3
Duration : 1h 58mn
Bit rate mode : Constant
Bit rate : 448 Kbps
Channel(s) : 6 channels
Channel positions : Front: L C R, Side: L R, LFE
Sampling rate : 48.0 KHz
Compression mode : Lossy
Stream size : 379 MiB (9%)
Title : Rus Bluray CEE
Default : Yes
Forced : No
Audio #2
ID : 3
Format : AC-3
Format/Info : Audio Coding 3
Mode extension : CM (complete main)
Format settings, Endianness : Big
Codec ID : A_AC3
Duration : 1h 58mn
Bit rate mode : Constant
Bit rate : 448 Kbps
Channel(s) : 6 channels
Channel positions : Front: L C R, Side: L R, LFE
Sampling rate : 48.0 KHz
Compression mode : Lossy
Stream size : 379 MiB (9%)
Title : Eng
Language : English
Default : No
Forced : No
Text #1
ID : 4
Format : UTF-8
Codec ID : S_TEXT/UTF8
Codec ID/Info : UTF-8 Plain Text
Title : Rus forsed
Default : Yes
Forced : No
Text #2
ID : 5
Format : UTF-8
Codec ID : S_TEXT/UTF8
Codec ID/Info : UTF-8 Plain Text
Title : Rus
Default : No
Forced : No
Text #3
ID : 6
Format : UTF-8
Codec ID : S_TEXT/UTF8
Codec ID/Info : UTF-8 Plain Text
Title : Eng
Language : English
Default : No
Forced : No
Menu
00:00:00.000 : en:00:00:00.000
00:07:00.627 : en:00:07:00.627
00:15:19.876 : en:00:15:19.876
00:20:33.856 : en:00:20:33.856
00:29:04.576 : en:00:29:04.576
00:34:35.738 : en:00:34:35.738
00:42:40.139 : en:00:42:40.139
00:49:28.005 : en:00:49:28.005
00:58:44.561 : en:00:58:44.561
01:03:10.161 : en:01:03:10.161
01:09:35.753 : en:01:09:35.753
01:15:05.332 : en:01:15:05.332
01:21:59.662 : en:01:21:59.662
01:27:07.220 : en:01:27:07.220
01:34:14.064 : en:01:34:14.064
01:46:44.855 : en:01:46:44.855
01:53:30.845 : en:01:53:30.845

x264 log

VIDEO ENCODING
x264 [info]: frame I:1420 Avg QP:15.06 size:101684 PSNR Mean Y:47.78 U:50.24 V:51.09 Avg:48.53 Global:48.09
x264 [info]: frame P:40421 Avg QP:16.63 size: 42279 PSNR Mean Y:46.39 U:49.18 V:50.23 Avg:47.21 Global:46.51
x264 [info]: frame B:128124 Avg QP:19.35 size: 14855 PSNR Mean Y:45.32 U:48.39 V:49.73 Avg:46.21 Global:45.56
x264 [info]: consecutive B-frames: 2.9% 4.4% 11.3% 20.1% 20.9% 34.4% 3.8% 0.8% 0.5% 0.3% 0.1% 0.1% 0.1% 0.1% 0.0% 0.0% 0.1%
x264 [total]: encoded 169965 frames, 1.50 fps, 4239.37 kb/s, duration 31:32:15.85

Скриншот c названием фильма

Скриншоты

Убедительная просьба пожалуйста кто скачал не бросайте раздачу!!!
 GOLD TORRENT! DOWNLOAD TRAFFIC DOES NOT CONSIDER! 
Torrent: Registered [ 2020-06-06 08:14 ]   · 2D494B4A5785CDEF78C055B209B28AC135DD6E6D

Download .torrent

Download

11 KB

Status: checked
Completed: 0 times
Size: 4.24 GB
Поделиться:
terms.php
[Profile] [PM]
Display posts:    
Reply to topic

Current time is: 26-Sep 07:30

All times are UTC + 3



You cannot post new topics in this forum
You cannot reply to topics in this forum
You cannot edit your posts in this forum
You cannot delete your posts in this forum
You cannot vote in polls in this forum
You cannot attach files in this forum
You can download files in this forum