Эверест / Everest (Бальтасар Кормакур / Baltasar Kormakur) [2015, США, Великобритания, Исландия, Триллер, драма, приключения, биография, история, BDRip-AVC] Dub + Sub Rus, Eng + Original Eng

Reply to topic
DL-List and Torrent activity
Size:  3.3 GB   |    Registered:  3 months 23 days   |    Completed:  0 times

Seeder not seen: Never

 
   
 
 
Author Message

admin ®

Gender: Male

Longevity: 3 years

Posts: 10018

Post 06-Oct-2017 05:06

[Quote]

ЭверестEverest«Самое опасное место на планете»

Страна: США, Великобритания, Исландия
Жанр: Триллер, драма, приключения, биография, история
Год выпуска: 2015
Продолжительность: 02:01:10
Перевод: Профессиональный (дублированный) Bluray CEE
Субтитры: русские,английские
Оригинальная аудиодорожка: английский
Режиссер: Бальтасар Кормакур / Baltasar Kormákur
В ролях: Джейсон Кларк, Джош Бролин, Джейк Джилленхол, Сэм Уортингтон, Джон Хоукс, Майкл Келли, Ингвар Эггерт Сигюрдссон, Кира Найтли, Эмили Уотсон, Робин Райт
Описание: Эверест — великая неприступная гора, покорить вершину которой мечтают многие профессиональные альпинисты. Одна из экспедиций на ее вершину закончилась настоящей трагедией, однако этот факт не останавливает отважных альпинистов.
Опытный инструктор Роб Холл, собрав группу из лучших альпинистов, собирается совершить восхождение на самую высокую вершину планеты. Все эти люди полны мужества и отваги и они не остановятся ни перед чем, пока не поднимутся на вершину Эвереста. Но даже если эта гора покорится им, смогут ли они вернуться обратно живыми и невредимыми?..
Доп. информация:
Релиз группы:
Сохранены оригинальные главы как на Bluray
Качество видео: BDRip-AVC | Эверест / Everest(2015) Blu-ray CEE 1080p AVC DD5.1|HD Club|
Формат видео: MKV
Видео: 1146x480 (2:40:1), 23,976 fps, 2930 Кbps, 0.222 bit/pixe
Аудио: 48 kHz, AC3 Dolby Digital, 3/2 (L,C,R,l,r) + LFE ch, ~448.00 kbps avg DUB
Аудио 2: 48 kHz, AC3 Dolby Digital, 3/2 (L,C,R,l,r) + LFE ch, ~448.00 kbps avg ENG
Формат субтитров: softsub (SRT)
Доп. информация о субтитрах: отключаемые

Знаете ли Вы что

• Роб Холл (Джейсон Кларк) является первым человеком, покорившим Эверест пять раз. А его жена Джен (Кира Найтли) является второй женщиной из Новой Зеландии, поднявшейся на вершину Эвереста (первой была Лидия Брэди (Lydia Bradey)).
• Кристиан Бэйл был утвержден на роль Роба Холла, но покинул проект ради участия в фильме «Исход: Цари и боги» (2014).
• Фильм основан на самой масштабной катастрофе, произошедшей на Эвересте в 1996 году. По жестокой иронии судьбы в тот самый период, когда проходили съемки, 18 апреля 2014 года, в Непале сошла лавина, в результате чего погибли 16 человек.
• Некоторые участники экспедиций, судьба которых легла в основу фильма, впоследствии издали книги, в которых изложили свое видение событий весны 1996 г. Наиболее известные — «В разреженном воздухе» (Into Thin Air, 1996) журналиста Джона Кракауера и «Восхождение» (The Climb, 1997) профессионального альпиниста Анатолия Букреева в соавторстве с Вестоном Де Уолтом (Weston DeWalt).
• Некоторые сцены были заимствованы из документального фильма «Эверест» (1998).
• Консультантом фильма выступил Лу Касишке, один из выживших участников трагедии, написавший об этом книгу — «После ветра» (After the Wind).
• Все сцены с Кирой Найтли были отсняты за 6 дней.
• Роль Баба Уэзерса сыграл 13-летний сын режиссера Бальтасара Кормакура — Стормур Йоун Кормакур Бальтасарссон.
• Это первый совместный фильм студии Walden Media и студии Universal Pictures.
• Срауинн Сигвальдасон мог сыграть роль в этом фильме.
• Фильм снимался в итальянских Альпах, павильоне римской студии Cinecittà и британской студии Pinewood. Некоторые сцены снимались при температуре -30°C.
• Производственный период начался 14 января 2014 года в Катманду. Сцены снимались на высоте 4877 метров.
• Чтобы сделать фильм еще более реалистичным, продюсеры наняли 11 настоящих шерпов, которые снялись в фильме. Непальцам довелось впервые покинуть свой дом и приехать в Италию, а затем некоторое время провести в студиях Cinecittà и Pinewood.
• Чтобы снять сцену на леднике Сеналес, съемочная группа ездила на горнолыжный курорт Шнальсталь в северной Италии. Группа состояла из 180 человек из Великобритании, Новой Зеландии, Австралии, Германии, Италии, США, Исландии и Непала. И без того непростые съемки были осложнены внезапным снегопадом, самым интенсивным в истории курорта. Иногда съемочная площадка полностью исчезала под метровым слоем снега, который приходилось оперативно расчищать.

Ошибки в фильме

• После первой лавины, когда Роб и Энди разговаривают, количество снега на голове Энди меняется при смене кадра.
• Когда команда путешественников садится в автобус в Непале в 1996 году, в автобусе по радио играет песня из фильма «И в печали, и в радости…» (2001).
• В 1996 году был лишь один навесной мост до поселения Намче-Базар. Второй навесной мост был построен после 2000 года.
• В начале фильма Бек носит футболку «Dole/Kemp «96» в марте. Боб Доул не выбирал себе напарника до августа 1996 года.
• Взлетно-посадочная полоса в городе Лукла в 1996 году была еще грунтовой. Заасфальтировали ее лишь после 2000 года.
• Путь бури, который доктор Маккензи рисует на карте, меняет свои размеры и форму при смене кадра.
• Когда Анатолий находит тело Скотта, прежде чем он закрывает рюкзаком ему лицо, отчетливо видно, что Джейк Джилленхол дышит.

MediaInfo

General
Unique ID : 230474117253149256450322551436282712776 (0xAD63B34C42E65378B2F913F0A03452C8)
Complete name : D:\Мои рипы\Эверест\Everest by_IVAN.@190282.mkv
Format : Matroska
Format version : Version 4 / Version 2
File size : 3.30 GiB
Duration : 2h 1mn
Overall bit rate : 3 904 Kbps
Movie name : Everest by_IVAN@190282
Encoded date : UTC 2016-02-22 22:10:06
Writing application : mkvmerge v8.8.0 ('Wind at my back') 64bit
Writing library : libebml v1.3.3 + libmatroska v1.4.4
Attachements : cover.jpg
DURATION : 01:50:04.642000000
NUMBER_OF_FRAMES : 1806
NUMBER_OF_BYTES : 51140
_STATISTICS_WRITING_APP : mkvmerge v8.8.0 ('Wind at my back') 64bit
_STATISTICS_WRITING_DATE_UT : 2016-02-22 22:10:06
_STATISTICS_TAGS : BPS DURATION NUMBER_OF_FRAMES NUMBER_OF_BYTES
Video
ID : 1
Format : AVC
Format/Info : Advanced Video Codec
Format profile : High@L4.1
Format settings, CABAC : Yes
Format settings, ReFrames : 11 frames
Codec ID : V_MPEG4/ISO/AVC
Duration : 2h 1mn
Bit rate : 2 930 Kbps
Width : 1 146 pixels
Height : 480 pixels
Display aspect ratio : 2.40:1
Frame rate mode : Constant
Frame rate : 23.976 fps
Color space : YUV
Chroma subsampling : 4:2:0
Bit depth : 8 bits
Scan type : Progressive
Bits/(Pixel*Frame) : 0.222
Stream size : 2.48 GiB (75%)
Title : Everest by_IVAN@190282
Writing library : x264 core 148 r2638kMod 7599210
Encoding settings : cabac=1 / ref=11 / deblock=1:-3:-2 / analyse=0x3:0x133 / me=umh / subme=11 / psy=1 / fade_compensate=0.00 / psy_rd=1.00:0.05 / mixed_ref=1 / me_range=48 / chroma_me=1 / trellis=2 / 8x8dct=1 / cqm=0 / deadzone=21,11 / fast_pskip=0 / chroma_qp_offset=-3 / threads=6 / lookahead_threads=6 / sliced_threads=0 / nr=0 / decimate=1 / interlaced=0 / bluray_compat=0 / constrained_intra=0 / fgo=0 / bframes=16 / b_pyramid=2 / b_adapt=2 / b_bias=0 / direct=3 / weightb=1 / open_gop=0 / weightp=2 / keyint=240 / keyint_min=23 / scenecut=40 / intra_refresh=0 / rc_lookahead=60 / rc=crf / mbtree=0 / crf=16.9000 / qcomp=0.60 / qpmin=0 / qpmax=69 / qpstep=4 / vbv_maxrate=50000 / vbv_bufsize=62500 / crf_max=0.0 / nal_hrd=none / filler=0 / ip_ratio=1.40 / pb_ratio=1.30 / aq=2:1.10
Language : English
Default : Yes
Forced : No
Color range : Limited
Color primaries : BT.709
Transfer characteristics : BT.709
Matrix coefficients : BT.709
DURATION : 02:01:10.430000000
NUMBER_OF_FRAMES : 174316
NUMBER_OF_BYTES : 2731276404
_STATISTICS_WRITING_APP : mkvmerge v8.8.0 ('Wind at my back') 64bit
_STATISTICS_WRITING_DATE_UT : 2016-02-22 22:10:06
_STATISTICS_TAGS : BPS DURATION NUMBER_OF_FRAMES NUMBER_OF_BYTES
Audio #1
ID : 2
Format : AC-3
Format/Info : Audio Coding 3
Mode extension : CM (complete main)
Format settings, Endianness : Big
Codec ID : A_AC3
Duration : 2h 1mn
Bit rate mode : Constant
Bit rate : 448 Kbps
Channel(s) : 6 channels
Channel positions : Front: L C R, Side: L R, LFE
Sampling rate : 48.0 KHz
Compression mode : Lossy
Stream size : 388 MiB (11%)
Title : BD CEE
Default : Yes
Forced : No
Audio #2
ID : 3
Format : AC-3
Format/Info : Audio Coding 3
Mode extension : CM (complete main)
Format settings, Endianness : Big
Codec ID : A_AC3
Duration : 2h 1mn
Bit rate mode : Constant
Bit rate : 448 Kbps
Channel(s) : 6 channels
Channel positions : Front: L C R, Side: L R, LFE
Sampling rate : 48.0 KHz
Compression mode : Lossy
Stream size : 388 MiB (11%)
Title : Eng
Language : English
Default : No
Forced : No
Text #1
ID : 4
Format : UTF-8
Codec ID : S_TEXT/UTF8
Codec ID/Info : UTF-8 Plain Text
Title : Rus forsed
Default : Yes
Forced : Yes
Text #2
ID : 5
Format : UTF-8
Codec ID : S_TEXT/UTF8
Codec ID/Info : UTF-8 Plain Text
Title : Rus
Default : No
Forced : No
Text #3
ID : 6
Format : UTF-8
Codec ID : S_TEXT/UTF8
Codec ID/Info : UTF-8 Plain Text
Title : Eng
Language : English
Default : No
Forced : No
Menu
00:00:00.000 : en:00:00:00.000
00:05:12.145 : en:00:05:12.145
00:09:36.075 : en:00:09:36.075
00:15:13.162 : en:00:15:13.162
00:20:58.423 : en:00:20:58.423
00:26:30.714 : en:00:26:30.714
00:33:15.118 : en:00:33:15.118
00:40:23.754 : en:00:40:23.754
00:47:23.382 : en:00:47:23.382
00:52:14.589 : en:00:52:14.589
00:57:49.174 : en:00:57:49.174
01:01:54.794 : en:01:01:54.794
01:07:22.079 : en:01:07:22.079
01:15:40.577 : en:01:15:40.577
01:21:03.900 : en:01:21:03.900
01:26:59.589 : en:01:26:59.589
01:32:39.136 : en:01:32:39.136
01:41:20.449 : en:01:41:20.449
01:46:47.651 : en:01:46:47.651
01:54:06.464 : en:01:54:06.464

x264 log

VIDEO ENCODING
x264 [info]: frame I:1076 Avg QP:14.89 size: 85011 PSNR Mean Y:49.71 U:52.41 V:51.41 Avg:50.05 Global:48.21
x264 [info]: frame P:39663 Avg QP:15.99 size: 31055 PSNR Mean Y:47.46 U:50.57 V:49.73 Avg:48.13 Global:46.73
x264 [info]: frame B:133577 Avg QP:17.89 size: 10541 PSNR Mean Y:47.11 U:50.63 V:49.49 Avg:47.80 Global:46.12
x264 [info]: consecutive B-frames: 3.0% 3.6% 10.2% 20.3% 16.8% 32.0% 4.9% 1.5% 0.9% 0.5% 0.5% 0.4% 0.2% 0.9% 0.5% 1.0% 3.1%
x264 [total]: encoded 174316 frames, 6.69 fps, 3005.35 kb/s, duration 7:14:28.98

Скриншот c названием фильма

Скриншоты

Убедительная просьба пожалуйста кто скачал не бросайте раздачу!!!
 GOLD TORRENT! DOWNLOAD TRAFFIC DOES NOT CONSIDER! 
Torrent: Registered [ 2020-06-06 07:28 ]   · A4423FC331F733D9293ADAD7F4698D79121B8155

Download .torrent

Download

17 KB

Status: checked
Completed: 0 times
Size: 3.3 GB
Поделиться:
terms.php
[Profile] [PM]
Display posts:    
Reply to topic

Current time is: 29-Sep 09:17

All times are UTC + 3



You cannot post new topics in this forum
You cannot reply to topics in this forum
You cannot edit your posts in this forum
You cannot delete your posts in this forum
You cannot vote in polls in this forum
You cannot attach files in this forum
You can download files in this forum