Фантазм 5: Уничтожитель / Phantasm: Ravager (Дэвид Хартман / David Hartman) [2016, США, Ужасы, боевик, BDRip-AVC] MVO(Синема Ус) + AVO (А. Алексеев) + Sub Rus, Eng + Original Eng

Reply to topic
DL-List and Torrent activity
Size:  3.02 GB   |    Registered:  3 months 20 days   |    Completed:  0 times

Seeder not seen: Never

 
   
 
 
Author Message

admin ®

Gender: Male

Longevity: 3 years

Posts: 10019

Post 06-Oct-2017 04:53

[Quote]

Фантазм 5: УничтожительPhantasm: Ravager«The Final Game Now Begins»

Страна: США
Жанр: Ужасы, боевик, фантастика
Год выпуска: 2016
Продолжительность: 01:25:32
Перевод : (Многоголосый закадровый) Синема УС
Перевод 2: Авторский (одноголосый закадровый) А. Алексеев
Субтитры: русские,английские
Оригинальная аудиодорожка: английский
Режиссер: Дэвид Хартман / David Hartman
В ролях: Рэджи Бэннистер, А. Майкл Болдуин, Кэти Лестер, Билл Торнбери, Энгус Скримм, Дэниэл Швайгер, Дэниэл Робак, Джей Олива, Глория Линн Генри, Кин Окада
Описание: Реджи и Майк сомневаются, что все, что с ними происходило, было на самом деле, и все это просто игры разума. Но как это может происходить одновременно у всех в голове…
Доп. информация:
Релиз группы:
Сохранены оригинальные главы как на Bluray
Качество видео: BDRip-AVC | Фантазм 5: Уничтожитель / Phantasm: Ravager (2016) 1080p BD-Remux| HD club
Формат видео: MKV
Видео: 1152x648 (16:9), 23,976 fps, 3676 Кbps, 0.205 bit/pixe
Аудио: 48 kHz, AC3 Dolby Digital, 2/0 (L,,R,l,r) ch, ~384.00 kbps avg MVO
Аудио 2: 48 kHz, AC3 Dolby Digital, 3/2 (L,C,R,l,r) + LFE ch, ~448.00 kbps avg AVO
Аудио 3: 48 kHz, AC3 Dolby Digital, 3/2 (L,C,R,l,r) + LFE ch, ~448.00 kbps avg ENG
Формат субтитров: softsub (SRT)
Доп. информация о субтитрах: отключаемые

MediaInfo

General
Unique ID : 199923824713198144628446759212709736337 (0x9667ED956A7F5FA9B9D67B0F97026F91)
Complete name : D:\Мои рипы\Phantasm Ravager by_IVAN@190282.mkv
Format : Matroska
Format version : Version 4 / Version 2
File size : 3.02 GiB
Duration : 1h 25mn
Overall bit rate : 5 057 Kbps
Movie name : Phantasm Ravager by_IVAN@190282
Encoded date : UTC 2017-02-24 23:39:55
Writing application : mkvmerge v9.9.0 ('Pick Up') 64bit
Writing library : libebml v1.3.4 + libmatroska v1.4.5
Attachements : cover.jpg
DURATION : 01:18:47.514000000
NUMBER_OF_FRAMES : 650
NUMBER_OF_BYTES : 17105
_STATISTICS_WRITING_APP : mkvmerge v9.9.0 ('Pick Up') 64bit
_STATISTICS_WRITING_DATE_UT : 2017-02-24 23:39:55
_STATISTICS_TAGS : BPS DURATION NUMBER_OF_FRAMES NUMBER_OF_BYTES
Video
ID : 1
Format : AVC
Format/Info : Advanced Video Codec
Format profile : High@L4.1
Format settings, CABAC : Yes
Format settings, ReFrames : 11 frames
Codec ID : V_MPEG4/ISO/AVC
Duration : 1h 25mn
Bit rate : 3 676 Kbps
Width : 1 152 pixels
Height : 648 pixels
Display aspect ratio : 16:9
Frame rate mode : Constant
Frame rate : 23.976 fps
Color space : YUV
Chroma subsampling : 4:2:0
Bit depth : 8 bits
Scan type : Progressive
Bits/(Pixel*Frame) : 0.205
Stream size : 2.20 GiB (73%)
Title : Phantasm Ravager by_IVAN@190282
Writing library : x264 core 148 r2744kMod b97ae06
Encoding settings : cabac=1 / ref=11 / deblock=1:-3:-3 / analyse=0x3:0x113 / me=umh / subme=11 / psy=1 / fade_compensate=0.00 / psy_rd=1.00:0.05 / mixed_ref=1 / me_range=48 / chroma_me=1 / trellis=2 / 8x8dct=1 / cqm=0 / deadzone=21,11 / fast_pskip=0 / chroma_qp_offset=-3 / threads=6 / lookahead_threads=6 / sliced_threads=0 / nr=0 / decimate=1 / interlaced=0 / bluray_compat=0 / constrained_intra=0 / bframes=16 / b_pyramid=2 / b_adapt=2 / b_bias=0 / direct=3 / weightb=1 / open_gop=0 / weightp=2 / keyint=240 / keyint_min=23 / scenecut=40 / intra_refresh=0 / rc_lookahead=60 / rc=crf / mbtree=0 / crf=17.8000 / qcomp=0.60 / qpmin=0 / qpmax=69 / qpstep=4 / vbv_maxrate=50000 / vbv_bufsize=62500 / crf_max=0.0 / nal_hrd=none / filler=0 / ip_ratio=1.40 / pb_ratio=1.30 / aq=3:0.70
Language : English
Default : Yes
Forced : No
Color primaries : BT.709
Transfer characteristics : BT.709
Matrix coefficients : BT.709
Color range : Limited
DURATION : 01:25:31.919000000
NUMBER_OF_FRAMES : 123043
NUMBER_OF_BYTES : 2421824629
_STATISTICS_WRITING_APP : mkvmerge v9.9.0 ('Pick Up') 64bit
_STATISTICS_WRITING_DATE_UT : 2017-02-24 23:39:55
_STATISTICS_TAGS : BPS DURATION NUMBER_OF_FRAMES NUMBER_OF_BYTES
Audio #1
ID : 2
Format : AC-3
Format/Info : Audio Coding 3
Mode extension : CM (complete main)
Format settings, Endianness : Big
Codec ID : A_AC3
Duration : 1h 25mn
Bit rate mode : Constant
Bit rate : 384 Kbps
Channel(s) : 2 channels
Channel positions : Front: L R
Sampling rate : 48.0 KHz
Bit depth : 16 bits
Compression mode : Lossy
Stream size : 235 MiB (8%)
Title : MVO Синема Ус
Default : Yes
Forced : No
Audio #2
ID : 3
Format : AC-3
Format/Info : Audio Coding 3
Mode extension : CM (complete main)
Format settings, Endianness : Big
Codec ID : A_AC3
Duration : 1h 25mn
Bit rate mode : Constant
Bit rate : 448 Kbps
Channel(s) : 6 channels
Channel positions : Front: L C R, Side: L R, LFE
Sampling rate : 48.0 KHz
Bit depth : 16 bits
Compression mode : Lossy
Stream size : 274 MiB (9%)
Title : AVO A.Alekseev
Default : No
Forced : No
Audio #3
ID : 4
Format : AC-3
Format/Info : Audio Coding 3
Mode extension : CM (complete main)
Format settings, Endianness : Big
Codec ID : A_AC3
Duration : 1h 25mn
Bit rate mode : Constant
Bit rate : 448 Kbps
Channel(s) : 6 channels
Channel positions : Front: L C R, Side: L R, LFE
Sampling rate : 48.0 KHz
Bit depth : 16 bits
Compression mode : Lossy
Stream size : 274 MiB (9%)
Title : Eng
Language : English
Default : No
Forced : No
Text #1
ID : 5
Format : UTF-8
Codec ID : S_TEXT/UTF8
Codec ID/Info : UTF-8 Plain Text
Title : Rus
Default : No
Forced : No
Text #2
ID : 6
Format : UTF-8
Codec ID : S_TEXT/UTF8
Codec ID/Info : UTF-8 Plain Text
Title : Eng
Language : English
Default : No
Forced : No
Menu
00:00:00.000 : en:00:00:00.000
00:10:24.955 : en:00:10:24.955
00:20:38.528 : en:00:20:38.528
00:31:55.954 : en:00:31:55.954
00:43:23.559 : en:00:43:23.559
00:50:46.460 : en:00:50:46.460
00:57:55.554 : en:00:57:55.554
01:04:00.920 : en:01:04:00.920
01:10:02.530 : en:01:10:02.530
01:17:09.166 : en:01:17:09.166

x264 log

VIDEO ENCODING
x264 [info]: frame I:1657 Avg QP:15.85 size: 93154 PSNR Mean Y:46.80 U:49.36 V:50.36 Avg:47.59 Global:47.02
x264 [info]: frame P:43178 Avg QP:17.59 size: 39345 PSNR Mean Y:45.70 U:48.39 V:49.96 Avg:46.54 Global:45.70
x264 [info]: frame B:144425 Avg QP:19.82 size: 18324 PSNR Mean Y:44.25 U:47.27 V:49.04 Avg:45.16 Global:44.45
x264 [info]: consecutive B-frames: 3.2% 4.7% 9.3% 16.6% 14.8% 38.7% 5.6% 1.4% 1.4% 1.5% 1.2% 0.7% 0.5% 0.3% 0.1% 0.1% 0.1%
x264 [total]: encoded 189260 frames, 7.14 fps, 3689.29 kb/s, duration 7:21:55.37

Скриншот c названием фильма

Скриншоты

Сравнения с исходником

Source by_IVAN@190282
Убедительная просьба пожалуйста кто скачал не бросайте раздачу!!!
 GOLD TORRENT! DOWNLOAD TRAFFIC DOES NOT CONSIDER! 
Torrent: Registered [ 2020-06-07 03:25 ]   · 5FD9D869C4439761B9DEFD395DE0A6EBB4ECA71E

Download .torrent

Download

16 KB

Status: checked
Completed: 0 times
Size: 3.02 GB
Поделиться:
terms.php
[Profile] [PM]
Display posts:    
Reply to topic

Current time is: 27-Sep 17:31

All times are UTC + 3



You cannot post new topics in this forum
You cannot reply to topics in this forum
You cannot edit your posts in this forum
You cannot delete your posts in this forum
You cannot vote in polls in this forum
You cannot attach files in this forum
You can download files in this forum