Чем дальше в лес... / Into the Woods (Роб Маршалл / Rob Marshall) [2014, США, Мюзикл, фэнтези, комедия, семейный, BDRip-AVC] Dub + Sub Rus, Eng + Original Eng

Reply to topic
DL-List and Torrent activity
Size:  2.7 GB   |    Registered:  3 months 20 days   |    Completed:  0 times

Seeder not seen: Never

 
   
 
 
Author Message

admin ®

Gender: Male

Longevity: 2 years 11 months

Posts: 10017

Post 06-Oct-2017 04:38

[Quote]

Чем дальше в лес...Into the Woods«Бойтесь своих желаний»

Страна: США
Жанр: Мюзикл, фэнтези, комедия, семейный
Год выпуска: 2014
Продолжительность: 02:04:45
Перевод: Профессиональный (дублированный) Blu-ray EUR
Субтитры: русские(форсированные)только на песни,английские
Оригинальная аудиодорожка: английский
Режиссер: Роб Маршалл / Rob Marshall
В ролях: Мэрил Стрип, Эмили Блант, Джеймс Корден, Анна Кендрик, Крис Пайн, Джонни Депп, Дэниэл Хаттлстоун, Кристин Барански, Тэмми Бланчард, Люси Панч
Описание: Золушка мечтает попасть на бал, Пекарь, когда-то проклятый Ведьмой, и его Жена горюют о том, что у них нет ребенка, Джек хочет, чтобы его корова Беляночка наконец-то дала молоко, его Мать мечтает быть богатой, а Красной Шапочке очень нужен каравай хлеба — гостинец для Бабушки, которая живет в лесу… и, может быть, немного сластей для себя лично.
Наконец, Ведьма, живущая по соседству с Пекарем, мечтает вернуть себе молодость и красоту, которые она утратила по несчастному стечению обстоятельств. Для этого она предлагает Пекарю в обмен на снятие проклятия помочь ей и добыть необходимые составляющие для волшебного напитка: корову, белую, как молоко, плащ, красный как кровь, прядь волос, желтых, как кукуруза, и золотые туфельки…
Доп. информация:
Релиз группы:
Сохранены оригинальные главы как на Bluray
Качество видео: BDRip-AVC | Чем дальше в лес... / Into the Woods (2014) 1080p BD-Remux|HD Club|
Формат видео: MKV
Видео: 1046x438 (2:40:1), 23,976 fps, 2133 Кbps, 0.194 bit/pixe
Аудио: 48 kHz, AC3 Dolby Digital, 3/2 (L,C,R,l,r) + LFE ch, ~448.00 kbps avg | DUB
Аудио 2: 48 kHz, AC3 Dolby Digital, 3/2 (L,C,R,l,r) + LFE ch, ~448.00 kbps avg | ENG
Формат субтитров: softsub (SRT)
Доп. информация о субтитрах: отключаемые

MediaInfo

General
Unique ID : 217034397827629583992817859778902245501 (0xA3474DF88CE82360B230FDB0AC6C407D)
Complete name : E:\Мои рипы\Чем дальше в лес\Into the Woods by_IVAN@190282.mkv
Format : Matroska
Format version : Version 4 / Version 2
File size : 2.70 GiB
Duration : 2h 5mn
Overall bit rate : 3 088 Kbps
Encoded date : UTC 2016-02-29 11:17:01
Writing application : mkvmerge v8.8.0 ('Wind at my back') 64bit
Writing library : libebml v1.3.3 + libmatroska v1.4.4
Attachements : cover.jpg
DURATION : 01:58:19.843000000
NUMBER_OF_FRAMES : 2077
NUMBER_OF_BYTES : 59456
_STATISTICS_WRITING_APP : mkvmerge v8.8.0 ('Wind at my back') 64bit
_STATISTICS_WRITING_DATE_UT : 2016-02-29 11:17:01
_STATISTICS_TAGS : BPS DURATION NUMBER_OF_FRAMES NUMBER_OF_BYTES
Video
ID : 1
Format : AVC
Format/Info : Advanced Video Codec
Format profile : High@L4.1
Format settings, CABAC : Yes
Format settings, ReFrames : 14 frames
Codec ID : V_MPEG4/ISO/AVC
Duration : 2h 5mn
Bit rate : 2 131 Kbps
Width : 1 046 pixels
Height : 438 pixels
Display aspect ratio : 2.40:1
Frame rate mode : Constant
Frame rate : 23.976 fps
Color space : YUV
Chroma subsampling : 4:2:0
Bit depth : 8 bits
Scan type : Progressive
Bits/(Pixel*Frame) : 0.194
Stream size : 1.86 GiB (69%)
Title : Into the Woods by_IVAN@190282
Writing library : x264 core 146 r2538kMod 121396c
Encoding settings : cabac=1 / ref=14 / deblock=1:-3:-3 / analyse=0x3:0x113 / me=umh / subme=11 / psy=1 / fade_compensate=0.00 / psy_rd=1.00:0.15 / mixed_ref=1 / me_range=48 / chroma_me=1 / trellis=2 / 8x8dct=1 / cqm=0 / deadzone=21,11 / fast_pskip=0 / chroma_qp_offset=0 / threads=6 / lookahead_threads=6 / sliced_threads=0 / slices=10 / nr=0 / decimate=1 / interlaced=0 / bluray_compat=0 / constrained_intra=0 / fgo=0 / bframes=16 / b_pyramid=2 / b_adapt=2 / b_bias=0 / direct=3 / weightb=1 / open_gop=1 / weightp=2 / keyint=240 / keyint_min=23 / scenecut=40 / intra_refresh=0 / rc_lookahead=40 / rc=crf / mbtree=0 / crf=17.4000 / qcomp=0.60 / qpmin=0 / qpmax=69 / qpstep=4 / vbv_maxrate=50000 / vbv_bufsize=62500 / crf_max=0.0 / nal_hrd=none / filler=0 / ip_ratio=1.40 / pb_ratio=1.30 / aq=1:1.00
Default : Yes
Forced : No
Color range : Limited
Color primaries : BT.709
Transfer characteristics : BT.709
Matrix coefficients : BT.709
Audio #1
ID : 2
Format : AC-3
Format/Info : Audio Coding 3
Mode extension : CM (complete main)
Format settings, Endianness : Big
Codec ID : A_AC3
Duration : 2h 5mn
Bit rate mode : Constant
Bit rate : 448 Kbps
Channel(s) : 6 channels
Channel positions : Front: L C R, Side: L R, LFE
Sampling rate : 48.0 KHz
Compression mode : Lossy
Stream size : 401 MiB (15%)
Title : Dub
Language : Russian
Default : Yes
Forced : No
Audio #2
ID : 3
Format : AC-3
Format/Info : Audio Coding 3
Mode extension : CM (complete main)
Format settings, Endianness : Big
Codec ID : A_AC3
Duration : 2h 5mn
Bit rate mode : Constant
Bit rate : 448 Kbps
Channel(s) : 6 channels
Channel positions : Front: L C R, Side: L R, LFE
Sampling rate : 48.0 KHz
Compression mode : Lossy
Stream size : 401 MiB (15%)
Title : Eng
Language : English
Default : No
Forced : No
Text #1
ID : 4
Format : UTF-8
Codec ID : S_TEXT/UTF8
Codec ID/Info : UTF-8 Plain Text
Title : Rus.forsed
Language : Russian
Default : Yes
Forced : Yes
Text #2
ID : 5
Format : UTF-8
Codec ID : S_TEXT/UTF8
Codec ID/Info : UTF-8 Plain Text
Title : Eng
Language : English
Default : No
Forced : No
Menu
00:00:00.000 : en:Prologue: "Into the Woods"
00:16:24.274 : en:"Cinderella at the Grave"
00:18:02.164 : en:"Hello, Little Girl"
00:21:30.998 : en:Aiming to Lift the Spell
00:26:37.846 : en:Rapunzel
00:28:28.415 : en:Granny's Cottage
00:30:08.765 : en:"I Know Things Now"
00:32:50.969 : en:The Beanstalk
00:33:31.884 : en:"A Very Nice Prince"
00:37:18.027 : en:"Giants in the Sky"
00:40:44.984 : en:Baker and His Wife
00:42:27.127 : en:"Agony"
00:46:13.604 : en:The Forbidden Tower
00:48:53.180 : en:"It Takes Two"
00:54:39.109 : en:"Stay with Me"
00:57:50.925 : en:Chopping Down the Beanstalk
01:00:02.807 : en:"On the Steps of the Palace"
01:03:33.976 : en:Searching for Cinderella
01:08:32.858 : en:A Tear
01:10:14.335 : en:Back to Life
01:14:47.524 : en:Nothing to Fear
01:21:45.567 : en:"Witch's Lament"
01:24:00.827 : en:"Any Moment"
01:29:15.266 : en:"Moments in the Woods"
01:33:29.437 : en:"Your Fault"
01:36:32.995 : en:"Last Midnight"
01:40:53.422 : en:Do Better
01:43:59.149 : en:The Faraway Prince
01:45:49.885 : en:"No One Is Alone"
01:49:38.947 : en:The Giant Attack
01:53:44.984 : en:You Are Not Alone/"Children Will Listen"
01:57:23.828 : en:Finale/Credits

x264 log

VIDEO ENCODING
x264 [info]: frame I:1116 Avg QP:15.34 size: 66335
x264 [info]: frame P:41315 Avg QP:16.67 size: 23738
x264 [info]: frame B:137451 Avg QP:18.33 size: 7271
x264 [info]: consecutive B-frames: 2.4% 3.5% 10.7% 20.0% 21.4% 33.8% 3.9% 0.6% 1.1% 0.5% 0.7% 0.1% 0.4% 0.3% 0.2% 0.0% 0.3%
x264 [info]: kb/s:2190.29
x264 [total]: encoded 179882 frames, 8.48 fps, 2190.29 kb/s, duration 5:53:39.61

Скриншот c названием фильма

Скриншоты

Убедительная просьба пожалуйста кто скачал не бросайте раздачу!!!
 GOLD TORRENT! DOWNLOAD TRAFFIC DOES NOT CONSIDER! 
Torrent: Registered [ 2020-06-06 07:31 ]   · A5CC3672EAACEA163C8A9F789B46FCAA8CE2B140

Download .torrent

Download

14 KB

Status: checked
Completed: 0 times
Size: 2.7 GB
Поделиться:
terms.php
[Profile] [PM]
Display posts:    
Reply to topic

Current time is: 26-Sep 08:03

All times are UTC + 3



You cannot post new topics in this forum
You cannot reply to topics in this forum
You cannot edit your posts in this forum
You cannot delete your posts in this forum
You cannot vote in polls in this forum
You cannot attach files in this forum
You can download files in this forum