Метро (Антон Мегердичев) [2012, фильм-катастрофа, BDRip-AVC]

Reply to topic
 
Author Message

admin ®

Gender: Male

Longevity: 3 years

Posts: 10018

Post 06-Oct-2017 04:23

[Quote]

Метро Жанр: фильм-катастрофа
Год выпуска: 2012
Продолжительность: 02:11:44
Режиссёр: Антон Мегердичев
В ролях: Сергей Пускепалис, Анатолий Белый, Светлана Ходченкова, Анфиса Вистингаузен, Алексей Бардуков, Катерина Шпица, Елена Панова, Станислав Дужников, Сергей Сосновский, Ярослав Жалнин, Николай Рябков, Михаил Фатеев, Александр Яковлев, Иван Макаревич, Владимир Стержаков, Александр Фисенко, Максим Линников, Иван Лапин, Олег Заболотный, Кирилл Плетнёв, Дмитрий Орлов, Анатолий Котенёв, Дмитрий Высоцкий, Александр Журман, Екатерина Директоренко, Александр Армер, Карен Мартиросян, Егор Пежемский, Валентин Варецкий, Владимир Юматов, Аля Никулина, Тамара Спиричева, Роман Радов
Описание: Широко развернувшееся в центре Москвы строительство новых зданий приводит к тому, что в одном из тоннелей метро между двумя станциями возникает трещина. Никто себе и представить не мог, что в результате нарушения герметичности перекрытия в тоннель хлынет вода из Москвы-реки, и сотни пассажиров поезда окажутся во власти надвигающегося потопа. Бешеный поток воды грозит не только обрушением тоннелей метро, но и разрушением всего города...
Доп. информация:

Качество видео: BDRip-AVC [исходник - Blu-Ray Remux 720p]
Формат видео: MKV
Видео: AVC H.264, 1280x544 (2,35:1), 23,976 fps, 1928 Кbps, 0.115 bit/pixel
Аудио: 48 kHz, AC3 Dolby Digital, 3/2 (L,C,R,l,r) + LFE ch, 448.00 kbps avg

MediaInfo

Уникальный идентификатор : 183180049562298357181795648645048700916 (0x89CF31BB7553EC92A3038BCFEEFA0FF4)
Полное имя : C:\Фильмы\Метро\Metro.2012.x264.BDRip.720p.mkv
Формат : Matroska
Версия формата : Version 4 / Version 2
Размер файла : 2,19 Гбайт
Продолжительность : 2 ч. 11 м.
Общий поток : 2377 Кбит/сек
Дата кодирования : UTC 2013-03-08 13:52:50
Программа кодирования : mkvmerge v6.0.0 ('Coming Up For Air') built on Jan 20 2013 09:52:00
Библиотека кодирования : libebml v1.3.0 + libmatroska v1.4.0
Идентификатор : 2
Формат : AVC
Формат/Информация : Advanced Video Codec
Профиль формата : High@L3.1
Параметр CABAC формата : Да
Параметр ReFrames формата : 4 кадра
Идентификатор кодека : V_MPEG4/ISO/AVC
Продолжительность : 2 ч. 11 м.
Битрейт : 1928 Кбит/сек
Ширина : 1280 пикселей
Высота : 544 пикселя
Соотношение сторон : 2,35:1
Соотношение сторон в оригинале : 2,35:1
Режим частоты кадров : Постоянный
Частота кадров : 23,976 кадра/сек
Цветовое пространство : YUV
Субдискретизация насыщенности : 4:2:0
Битовая глубина : 8 бит
Тип развёртки : Прогрессивная
Бит/(Пиксели*Кадры) : 0.115
Размер потока : 1,73 Гбайт (79%)
Библиотека кодирования : x264 core 129 r2245 bc13772
Настройки программы : cabac=1 / ref=3 / deblock=1:0:0 / analyse=0x3:0x133 / me=hex / subme=7 / psy=1 / psy_rd=1.00:0.00 / mixed_ref=1 / me_range=16 / chroma_me=1 / trellis=1 / 8x8dct=1 / cqm=0 / deadzone=21,11 / fast_pskip=1 / chroma_qp_offset=-2 / threads=6 / lookahead_threads=1 / sliced_threads=0 / nr=0 / decimate=1 / interlaced=0 / bluray_compat=0 / constrained_intra=0 / bframes=3 / b_pyramid=2 / b_adapt=1 / b_bias=0 / direct=1 / weightb=1 / open_gop=0 / weightp=2 / keyint=240 / keyint_min=23 / scenecut=40 / intra_refresh=0 / rc_lookahead=40 / rc=2pass / mbtree=1 / bitrate=1928 / ratetol=1.0 / qcomp=0.60 / qpmin=0 / qpmax=69 / qpstep=4 / cplxblur=20.0 / qblur=0.5 / ip_ratio=1.40 / aq=1:1.00
Язык : English
Default : Да
Forced : Нет
Идентификатор : 1
Формат : AC-3
Формат/Информация : Audio Coding 3
Расширение режима : CM (complete main)
Параметр Endianness формата : Big
Идентификатор кодека : A_AC3
Продолжительность : 2 ч. 11 м.
Вид битрейта : Постоянный
Битрейт : 448 Кбит/сек
Каналы : 6 каналов
Расположение каналов : Front: L C R, Side: L R, LFE
Частота : 48,0 КГц
Битовая глубина : 16 бит
Метод сжатия : С потерями
Размер потока : 422 Мбайт (19%)
Default : Да
Forced : Нет

Скриншот c названием фильма

Скриншоты

[Profile] [PM]
Display posts:    
Reply to topic

Current time is: 29-Sep 11:50

All times are UTC + 3



You cannot post new topics in this forum
You cannot reply to topics in this forum
You cannot edit your posts in this forum
You cannot delete your posts in this forum
You cannot vote in polls in this forum
You cannot attach files in this forum
You can download files in this forum