Призрак в доспехах / Ghost in the Shell (Руперт Сандерс / Rupert Sanders) [2017, США, Индия, Китай, Фантастика, боевик, триллер, BDRip-AVC] Dub + Sub Rus, Eng + Original Eng

Reply to topic
DL-List and Torrent activity
Size:  2.43 GB   |    Registered:  2 years 6 months   |    Completed:  8 times

Seeder not seen: 1 day 18 hours

Leechers:  3  [  0 KB/s  ]   Show peers in full details
 
   
 
 
Author Message

admin ®

Gender: Male

Longevity: 2 years 6 months

Posts: 15900

Post 27-Sep-2017 08:27

[Quote]

Призрак в доспехахGhost in the Shell

Страна: США, Индия, Китай
Жанр: Фантастика, боевик, триллер
Год выпуска: 2017
Продолжительность: 01:46:56
Перевод: Профессиональный (дублированный) Blu-ray CEE
Субтитры: русские,английские
Оригинальная аудиодорожка: английский
Режиссер: Руперт Сандерс / Rupert Sanders
В ролях: Скарлетт Йоханссон, Йохан Филип Асбек, Такеши Китано, Жюльет Бинош, Майкл Питт, Чин Хань, Дануся Самал, Ласарус Ратуэре, Ютака Идзумихара, Таванда Маниймо
Описание: Кибер-технологии подчинили себе все сферы жизни, а самые опасные преступники переместились в виртуальное пространство. Киборг-гибрид, стоящий во главе элитного подразделения полиции, идет по следу могущественного хакера.
Доп. информация:
Релиз группы:
Сохранены оригинальные главы как на Bluray
Качество видео: BDRip-AVC | GHOST_IN_THE_SHELL_HDCLUB |
Формат видео: MKV
Видео: 1152x648 (16:9), 23,976 fps, 2288 Кbps, 0.128 bit/pixe
Аудио: 48 kHz, AC3 Dolby Digital, 3/2 (L,C,R,l,r) + LFE ch, ~448.00 kbps avg DUB
Аудио 2: 48 kHz, AC3 Dolby Digital, 3/2 (L,C,R,l,r) + LFE ch, ~448.00 kbps avg ENG
Формат субтитров: softsub (SRT)
Доп. информация о субтитрах: отключаемые srt

Знаете ли Вы что

• Изначально планировалось, что главную роль исполнит Марго Робби, но она отказалась. В итоге роль отдали Скарлетт Йоханссон.
• Сэм Райли претендовал на роль, которую получил Майкл Питт.
• Маттиас Шонартс мог сыграть Бато.
• Фильм снимался преимущественно в Веллингтоне (Новая Зеландия), а также в Гонконге и Шанхае.
• Большую часть мужских костюмов сшила компания Rembrandt – последний и старейший изготовитель костюмов в Новой Зеландии.

MediaInfo

General
Unique ID : 249105945956484489328066287795917411937 (0xBB680F605EE63F51AA2B25A1EC59D661)
Complete name : F:\Мои рипы\Призрак в доспехах\Ghost in the Shell by_IVAN@190282.mkv
Format : Matroska
Format version : Version 4 / Version 2
File size : 2.43 GiB
Duration : 1h 46mn
Overall bit rate : 3 249 Kbps
Movie name : Ghost in the Shell by_IVAN@190282
Encoded date : UTC 2017-07-27 11:54:36
Writing application : mkvmerge v14.0.0 ('Flow') 64bit
Writing library : libebml v1.3.4 + libmatroska v1.4.5
DURATION : 01:35:14.766000000
NUMBER_OF_FRAMES : 1129
NUMBER_OF_BYTES : 43661
_STATISTICS_WRITING_APP : mkvmerge v14.0.0 ('Flow') 64bit
_STATISTICS_WRITING_DATE_UTC : 2017-07-27 11:54:36
_STATISTICS_TAGS : BPS DURATION NUMBER_OF_FRAMES NUMBER_OF_BYTES
Attachment : Yes
Video
ID : 1
Format : AVC
Format/Info : Advanced Video Codec
Format profile : High@L4.1
Format settings, CABAC : Yes
Format settings, ReFrames : 11 frames
Codec ID : V_MPEG4/ISO/AVC
Duration : 1h 46mn
Bit rate : 2 288 Kbps
Width : 1 152 pixels
Height : 648 pixels
Display aspect ratio : 16:9
Frame rate mode : Constant
Frame rate : 23.976 fps
Color space : YUV
Chroma subsampling : 4:2:0
Bit depth : 8 bits
Scan type : Progressive
Bits/(Pixel*Frame) : 0.128
Stream size : 1.71 GiB (70%)
Title : Ghost in the Shell by_IVAN@190282
Writing library : x264 core 152 r2851kMod ba24899
Encoding settings : cabac=1 / ref=11 / deblock=1:-3:-3 / analyse=0x3:0x113 / me=umh / subme=11 / psy=1 / fade_compensate=0.00 / psy_rd=1.00:0.05 / mixed_ref=1 / me_range=48 / chroma_me=1 / trellis=2 / 8x8dct=1 / cqm=0 / deadzone=21,11 / fast_pskip=0 / chroma_qp_offset=-3 / threads=6 / lookahead_threads=6 / sliced_threads=0 / nr=0 / decimate=1 / interlaced=0 / bluray_compat=0 / constrained_intra=0 / bframes=16 / b_pyramid=2 / b_adapt=2 / b_bias=0 / direct=3 / weightb=1 / open_gop=0 / weightp=2 / keyint=240 / keyint_min=23 / scenecut=40 / intra_refresh=0 / rc_lookahead=60 / rc=crf / mbtree=1 / crf=16.2000 / qcomp=0.60 / qpmin=0 / qpmax=69 / qpstep=4 / vbv_maxrate=50000 / vbv_bufsize=62500 / crf_max=0.0 / nal_hrd=none / filler=0 / ip_ratio=1.40 / aq=3:0.70
Language : English
Default : Yes
Forced : No
Color primaries : BT.709
Transfer characteristics : BT.709
Matrix coefficients : BT.709
DURATION : 01:46:56.702000000
NUMBER_OF_FRAMES : 153847
NUMBER_OF_BYTES : 1884746354
_STATISTICS_WRITING_APP : mkvmerge v14.0.0 ('Flow') 64bit
_STATISTICS_WRITING_DATE_UTC : 2017-07-27 11:54:36
_STATISTICS_TAGS : BPS DURATION NUMBER_OF_FRAMES NUMBER_OF_BYTES
Audio #1
ID : 2
Format : AC-3
Format/Info : Audio Coding 3
Mode extension : CM (complete main)
Format settings, Endianness : Big
Codec ID : A_AC3
Duration : 1h 46mn
Bit rate mode : Constant
Bit rate : 448 Kbps
Channel(s) : 6 channels
Channel positions : Front: L C R, Side: L R, LFE
Sampling rate : 48.0 KHz
Bit depth : 16 bits
Compression mode : Lossy
Stream size : 343 MiB (14%)
Title : Dub Bluray CEE
Language : Russian
Default : Yes
Forced : No
Audio #2
ID : 3
Format : AC-3
Format/Info : Audio Coding 3
Mode extension : CM (complete main)
Format settings, Endianness : Big
Codec ID : A_AC3
Duration : 1h 46mn
Bit rate mode : Constant
Bit rate : 448 Kbps
Channel(s) : 6 channels
Channel positions : Front: L C R, Side: L R, LFE
Sampling rate : 48.0 KHz
Bit depth : 16 bits
Compression mode : Lossy
Stream size : 343 MiB (14%)
Title : Eng
Language : English
Default : No
Forced : No
Text #1
ID : 4
Format : UTF-8
Codec ID : S_TEXT/UTF8
Codec ID/Info : UTF-8 Plain Text
Title : Rus forsed
Language : Russian
Default : Yes
Forced : No
Text #2
ID : 5
Format : UTF-8
Codec ID : S_TEXT/UTF8
Codec ID/Info : UTF-8 Plain Text
Title : Rus
Language : Russian
Default : No
Forced : No
Text #3
ID : 6
Format : UTF-8
Codec ID : S_TEXT/UTF8
Codec ID/Info : UTF-8 Plain Text
Title : Eng ful
Language : English
Default : No
Forced : No
Text #4
ID : 7
Format : UTF-8
Codec ID : S_TEXT/UTF8
Codec ID/Info : UTF-8 Plain Text
Title : Eng SDH
Language : English
Default : No
Forced : No
Text #5
ID : 8
Format : UTF-8
Codec ID : S_TEXT/UTF8
Codec ID/Info : UTF-8 Plain Text
Title : Eng SDH Colored
Language : English
Default : No
Forced : No
Menu
00:00:00.000 : :00:00:00.000
00:08:09.322 : :00:08:09.322
00:14:39.962 : :00:14:39.962
00:21:26.494 : :00:21:26.494
00:28:02.681 : :00:28:02.681
00:34:13.217 : :00:34:13.218
00:39:27.615 : :00:39:27.615
00:43:57.802 : :00:43:57.802
00:51:49.815 : :00:51:49.815
00:55:19.066 : :00:55:19.066
01:01:06.872 : :01:01:06.872
01:07:49.732 : :01:07:49.732
01:14:36.972 : :01:14:36.972
01:20:31.744 : :01:20:31.744
01:27:46.178 : :01:27:46.178
01:33:41.407 : :01:33:41.407
01:38:00.083 : :01:38:00.083

x264 log

VIDEO ENCODING
x264 [info]: frame I:1059 Avg QP:13.70 size:111296 PSNR Mean Y:51.25 U:54.04 V:53.61 Avg:51.91 Global:51.59
x264 [info]: frame P:34126 Avg QP:15.23 size: 27864 PSNR Mean Y:48.91 U:52.41 V:51.45 Avg:49.62 Global:49.14
x264 [info]: frame B:118662 Avg QP:16.67 size: 6877 PSNR Mean Y:48.36 U:51.96 V:51.15 Avg:49.08 Global:48.45
x264 [info]: consecutive B-frames: 2.3% 2.0% 14.4% 14.7% 17.4% 36.3% 6.0% 2.7% 1.6% 0.4% 0.9% 0.4% 0.2% 0.1% 0.1% 0.1% 0.3%
x264 [total]: encoded 153847 frames, 1.79 fps, 2349.80 kb/s, duration 23:50:21.63

Скриншот c названием фильма

Скриншоты

Сравнения

Source by_IVAN@190282 SOURCE VS by_IVAN@190282 http://screenshotcomparison.com/comparison/216965/picture:0
Убедительная просьба пожалуйста кто скачал не бросайте раздачу!!!
 GOLD TORRENT! DOWNLOAD TRAFFIC DOES NOT CONSIDER! 
Torrent: Registered [ 2017-09-27 08:27 ]   · A230F45AA45289DA5C58A5BCEFB8E8AEE4B05E2D

Download .torrent

Download

13 KB

Status: checked
Completed: 8 times
Size: 2.43 GB
Поделиться:
terms.php
[Profile] [PM]
Display posts:    
Reply to topic

Current time is: 08-Apr 12:26

All times are UTC + 3



You cannot post new topics in this forum
You cannot reply to topics in this forum
You cannot edit your posts in this forum
You cannot delete your posts in this forum
You cannot vote in polls in this forum
You cannot attach files in this forum
You can download files in this forum