Warcraft 3 - Expansion Set (2002-2003) PC | Repack

Reply to topic
DL-List and Torrent activity
Size:  1.45 GB   |    Registered:  2 years 2 months   |    Completed:  1 time
Seeders:  154  [  0 KB/s  ]   Leechers:  8  [  0 KB/s  ]   Show peers in full details
 
   
 
 
Author Message

admin ®

Gender: Male

Longevity: 2 years 3 months

Posts: 15471

Post 08-Nov-2017 00:52

[Quote]


Название: Warcraft III Expansion Set
Тип издания: Репак
Жанр: RTS
Разработчик: Blizzard Entertainment
Год: 2002-2003
Платформа: PC
Версия: 1.28f
Язык интерфейса: Русский
Язык озвучки: Русский
Мультиплеер: LAN, Multiplayer
Таблетка: не требуется
Системные требования:
> Операционная система: Windows® 98/98SE/ME/2000/XP
> Процессор: 400 МГц или аналогичный
> Оперативная память: 128 Мб
> Видеокарта: Видеокарта с 8 или более Мб видеопамяти и драйвером, совместимым с DirectX 8.1
> Звуковая карта: 16-разрядная звуковая карта, совместимая с DirectX 8.1
> Свободное место на жестком диске: 1,5 Гб
Описание:
Warcraft III — культовая компьютерная игра в жанре стратегии в реальном времени. В отличие от предыдущих игр серии, количество противоборствующих сторон увеличилось с двух до четырех: можно играть за уже известные Альянс и Орду, а также за две новые расы — Нежить и Ночных эльфов. Однако, общий геймплей не изменился — игроку все также нужно добывать ресурсы, строить базы и нанимать войска, чтобы уничтожить противника. Нововведением стали герои — уникальные воины, имеющие особые способности и могущие получать опыт при убийстве воинов противника. Кампания игры начинается спустя 12 лет после событий Warcraft II: Beyond the Dark Portal и рассказывает о пришествии демонов в мир Азерота.
Особенности репака:
- За основу взята цифровая лицензия с официального сайта Blizzard. Перевод от Софт-Клаб.
- Удалены ресурсы оригинального инсталлятора.
- Установлен патч 1.28f.
- Присутствуют все официальные карты и еще добавлены Веб карты с официального сайта.
- Исправлена ошибка, из-за которой при запуске видеороликов в игре разрешение экрана менялось на 800х600.
- Видеоролики низкого качества заменены на DVD рипы с разрешением 720х320 и еще два ролика с официального сайта в разрешении 1280х576.
- Проверено на Windows 7 x64.

Техданные видеороликов

Два ролика TutorialOp и IntroX скачанные с оф. сайта и перекодированы в XVID.
Видео: 1280x576 (2.22:1), 24 fps, XviD build 73, 6500 и 4456 kbps
Аудио: mp3 stereo 128 и 192 kbps

Остальные ролики рипнуты с DVD.
Видео: 720x320 (2.25:1), 23,976 fps, XviD build 73, ~2400 kbps
Аудио: mp3 stereo 128 и 192 kbps

MIVideo
ID : 0
Format : MPEG-4 Visual
Format profile : Advanced Simple@L5
Format settings, BVOP : 2
Format settings, QPel : No
Format settings, GMC : No warppoints
Format settings, Matrix : Default (MPEG)
Codec ID : XVID
Codec ID/Hint : XviD
Duration : 2mn 54s
Bit rate : 6 499 Kbps
Width : 1 280 pixels
Height : 576 pixels
Display aspect ratio : 2.222
Frame rate : 24.000 fps
Color space : YUV
Chroma subsampling : 4:2:0
Bit depth : 8 bits
Scan type : Progressive
Compression mode : Lossy
Bits/(Pixel*Frame) : 0.367
Stream size : 136 MiB (97%)
Writing library : XviD 73
Audio
ID : 1
Format : MPEG Audio
Format version : Version 1
Format profile : Layer 3
Mode : Joint stereo
Mode extension : MS Stereo
Codec ID : 55
Codec ID/Hint : MP3
Duration : 2mn 53s
Bit rate mode : Variable
Bit rate : 192 Kbps
Channel(s) : 2 channels
Sampling rate : 44.1 KHz
Compression mode : Lossy
Stream size : 3.97 MiB (3%)
Alignment : Aligned on interleaves
Interleave, duration : 26 ms (0.63 video frame)
Interleave, preload duration : 500 ms
------------------------------------------------------------
Video
ID : 0
Format : MPEG-4 Visual
Format profile : Advanced Simple@L5
Format settings, BVOP : 2
Format settings, QPel : No
Format settings, GMC : No warppoints
Format settings, Matrix : Default (MPEG)
Codec ID : XVID
Codec ID/Hint : XviD
Duration : 2mn 36s
Bit rate : 2 398 Kbps
Width : 720 pixels
Height : 320 pixels
Display aspect ratio : 2.25:1
Frame rate : 23.976 fps
Color space : YUV
Chroma subsampling : 4:2:0
Bit depth : 8 bits
Scan type : Progressive
Compression mode : Lossy
Bits/(Pixel*Frame) : 0.434
Stream size : 44.6 MiB (92%)
Writing library : XviD 73
Audio
ID : 1
Format : MPEG Audio
Format version : Version 1
Format profile : Layer 3
Mode : Joint stereo
Mode extension : MS Stereo
Codec ID : 55
Codec ID/Hint : MP3
Duration : 2mn 35s
Bit rate mode : Variable
Bit rate : 192 Kbps
Channel(s) : 2 channels
Sampling rate : 44.1 KHz
Compression mode : Lossy
Stream size : 3.56 MiB (7%)
Alignment : Aligned on interleaves
Interleave, duration : 26 ms (0.63 video frame)
Interleave, preload duration : 500 ms

Обновления

Update 1 (06.11.17)
- Установлен патч 1.28f.

Скриншоты

 GOLD TORRENT! DOWNLOAD TRAFFIC DOES NOT CONSIDER! 
Torrent: Registered [ 2017-11-08 00:52 ]   · 1EF7BAEB0C5D4B510B511060D859F7130D15DD32

Download .torrent

Download

16 KB

Status: checked
Completed: 1 times
Size: 1.45 GB
Поделиться:
terms.php
[Profile] [PM]
Display posts:    
Reply to topic

Current time is: 19-Jan 00:15

All times are UTC + 3



You cannot post new topics in this forum
You cannot reply to topics in this forum
You cannot edit your posts in this forum
You cannot delete your posts in this forum
You cannot vote in polls in this forum
You cannot attach files in this forum
You can download files in this forum