Под покровом ночи / Nocturnal Animals (2016) BDRip 720p от KinoGadget | iPad | Лицензия

Reply to topic
DL-List and Torrent activity [Update пиров]
Size:  1.92 GB   |    Registered:  3 years 7 months   |    Completed:  0 times
Seeders:  14  [  0 KB/s  ]   Leechers:  7  [  0 KB/s  ]   Show peers in full details
 
   
 
 
Author Message

admin ®

Gender: Male

Longevity: 3 years 8 months

Posts: 12013

Post 06-Nov-2017 00:49

[Quote]

Название фильма: Под покровом ночи
Оригинальное название фильма: Nocturnal Animals
Год выпуска: 2016
Страна: США
Жанр: триллер, драма
Возраст: 18+
Режиссер: Том Форд
В ролях: Эми Адамс, Джейк Джилленхол, Майкл Шеннон, Аарон Тейлор-Джонсон, Айла Фишер, Элли Бамбер, Арми Хаммер, Карл Глусман, Роберт Арамайо, Лора Линни
Описание: У Сьюзен роскошная жизнь в Лос-Анджелесе, прекрасный муж и собственная галерея. Но однажды она получает неожиданную посылку от бывшего супруга — он хотел бы встретиться, но сначала просит прочитать его новый роман. Сьюзен не подозревает, что как только она откроет рукопись, она вернется в прошлое, которое считала надежно укрытым под покровом ночи.
Продолжительность: 01:56:08
Перевод: Дублированный [Лицензия]
Оригинальная дорожка: есть
Автор рипа:
Качество видео: BDRip 720p Исходник: Blu-Ray Remux (1080p) Формат: mp4
Видео кодек: MPEG-4 AVC Аудио кодек: AAC
Видео: 1280x528 (2.40:1) at 23.976 fps, AVC at 2 100 kbps avg, 0.130 bit/pixel
Аудио №1 Rus: 48.0 KHz, AAC, 2 ch, 128.0 Kbps
Аудио №2 Eng: 48.0 KHz, AAC, 2 ch, 128.0 Kbps
Субтитры: русские (форсированные, полные), английские (полные)
Навигация по главам: есть
Размер: 1.92 GiB

Log x264

avs [info]: 1280x528p 1:1 @ 24000/1001 fps (cfr)
x264 [info]: using SAR=1/1
x264 [info]: using cpu capabilities: MMX2 SSE2Fast SSSE3 Cache64
x264 [info]: profile High, level 4.1
x264 [info]: frame I:1551 Avg QP:13.91 size: 92445
x264 [info]: frame P:31273 Avg QP:16.85 size: 23516
x264 [info]: frame B:134239 Avg QP:19.49 size: 7078
x264 [info]: consecutive B-frames: 1.4% 0.6% 3.2% 9.8% 15.2% 58.6% 11.2%
x264 [info]: mb I I16..4: 8.2% 73.6% 18.1%
x264 [info]: mb P I16..4: 1.2% 5.0% 0.6% P16..4: 43.9% 22.4% 15.4% 0.0% 0.0% skip:11.4%
x264 [info]: mb B I16..4: 0.0% 0.5% 0.0% B16..8: 41.8% 6.2% 1.4% direct: 3.5% skip:46.6% L0:46.6% L1:47.8% BI: 5.6%
x264 [info]: 8x8 transform intra:75.8% inter:61.7%
x264 [info]: coded y,uvDC,uvAC intra: 76.1% 79.1% 61.1% inter: 17.1% 16.0% 2.2%
x264 [info]: i16 v,h,dc,p: 58% 11% 7% 24%
x264 [info]: i8 v,h,dc,ddl,ddr,vr,hd,vl,hu: 15% 11% 30% 5% 8% 9% 7% 8% 7%
x264 [info]: i4 v,h,dc,ddl,ddr,vr,hd,vl,hu: 24% 14% 18% 6% 10% 9% 7% 6% 5%
x264 [info]: i8c dc,h,v,p: 58% 15% 18% 9%
x264 [info]: Weighted P-Frames: Y:3.7% UV:1.5%
x264 [info]: ref P L0: 45.3% 6.9% 18.3% 7.5% 6.3% 4.7% 4.3% 2.3% 2.2% 2.0% 0.1% 0.0%
x264 [info]: ref B L0: 68.3% 12.5% 7.2% 3.7% 2.8% 2.3% 2.0% 0.9% 0.3%
x264 [info]: ref B L1: 92.2% 7.8%
x264 [info]: kb/s:2099.88
encoded 167063 frames, 2.00 fps, 2099.88 kb/s

MI

General
Complete name : ...Pod_pokrovom_nochi_2016_KinoGadget.mp4
Format : MPEG-4
Format profile : Base Media
Codec ID : isom (isom)
File size : 1.92 GiB
Duration : 1 h 56 min
Overall bit rate mode : Variable
Overall bit rate : 2 367 kb/s
Movie name : Под покровом ночи | KinoGadget
Performer : Том Форд
Director : Том Форд
Actor : Эми Адамс / Джейк Джилленхол / Майкл Шеннон / Аарон Тейлор-Джонсон / Айла Фишер / Элли Бамбер / Арми Хаммер / Карл Глусман / Роберт Арамайо / Лора Линни
Screenplay by : Том Форд / Остин Райт
Producer : Том Форд / Роберт Салерно / Марк Харрис
Genre : Drama, Thriller
ContentType : Short Film
Recorded date : 2016
Encoded date : UTC 2017-11-04 20:57:10
Tagged date : UTC 2017-11-05 16:06:31
Cover : Yes
ContentRating : mpaa|R|400|
LongDeion : У Сьюзен роскошная жизнь в Лос-Анджелесе, прекрасный муж и собственная галерея. Но однажды она получает неожиданную посылку от бывшего супруга — он хотел бы встретиться, но сначала просит прочитать его новый роман. Сьюзен не подозревает, что как только она откроет рукопись, она вернется в прошлое, которое считала надежно укрытым под покровом ночи.
HDVideo : Yes
Video
ID : 1
Format : AVC
Format/Info : Advanced Video Codec
Format profile : High@L4.1
Format settings, CABAC : Yes
Format settings, ReFrames : 10 frames
Codec ID : avc1
Codec ID/Info : Advanced Video Coding
Duration : 1 h 56 min
Bit rate : 2 100 kb/s
Maximum bit rate : 17.1 Mb/s
Width : 1 280 pixels
Height : 528 pixels
Display aspect ratio : 2.40:1
Frame rate mode : Constant
Frame rate : 23.976 (24000/1001) FPS
Color space : YUV
Chroma subsampling : 4:2:0
Bit depth : 8 bits
Scan type : Progressive
Bits/(Pixel*Frame) : 0.130
Stream size : 1.70 GiB (89%)
Writing library : x264 core 148 r2744 b97ae06
Encoding settings : cabac=1 / ref=10 / deblock=1:-2:-1 / analyse=0x3:0x113 / me=umh / subme=7 / psy=1 / psy_rd=1.00:0.00 / mixed_ref=1 / me_range=32 / chroma_me=1 / trellis=2 / 8x8dct=1 / cqm=0 / deadzone=21,11 / fast_pskip=0 / chroma_qp_offset=-2 / threads=3 / lookahead_threads=1 / sliced_threads=0 / nr=0 / decimate=1 / interlaced=0 / bluray_compat=0 / constrained_intra=0 / bframes=6 / b_pyramid=2 / b_adapt=2 / b_bias=0 / direct=1 / weightb=1 / open_gop=0 / weightp=2 / keyint=250 / keyint_min=25 / scenecut=40 / intra_refresh=0 / rc_lookahead=60 / rc=crf / mbtree=1 / crf=18.0 / qcomp=0.60 / qpmin=0 / qpmax=69 / qpstep=4 / vbv_maxrate=62500 / vbv_bufsize=78125 / crf_max=0.0 / nal_hrd=none / filler=0 / ip_ratio=1.40 / aq=1:1.00
Encoded date : UTC 2017-11-04 18:57:22
Tagged date : UTC 2017-11-04 20:57:53
Audio #1
ID : 2
Format : AAC
Format/Info : Advanced Audio Codec
Format profile : LC
Codec ID : 40
Duration : 1 h 56 min
Bit rate mode : Variable
Bit rate : 128 kb/s
Maximum bit rate : 135 kb/s
Channel(s) : 2 channels
Channel positions : Front: L R
Sampling rate : 48.0 kHz
Frame rate : 46.875 FPS (1024 spf)
Compression mode : Lossy
Stream size : 106 MiB (5%)
Language : Russian
Encoded date : UTC 2017-11-04 20:42:30
Tagged date : UTC 2017-11-04 20:57:53
Audio #2
ID : 3
Format : AAC
Format/Info : Advanced Audio Codec
Format profile : LC
Codec ID : 40
Duration : 1 h 56 min
Bit rate mode : Variable
Bit rate : 128 kb/s
Maximum bit rate : 134 kb/s
Channel(s) : 2 channels
Channel positions : Front: L R
Sampling rate : 48.0 kHz
Frame rate : 46.875 FPS (1024 spf)
Compression mode : Lossy
Stream size : 106 MiB (5%)
Language : English
Encoded date : UTC 2017-11-04 19:13:39
Tagged date : UTC 2017-11-04 20:57:53
Text #1
ID : 4
Format : Timed Text
Codec ID : tx3g
Duration : 1 h 56 min
Bit rate mode : Variable
Bit rate : 0 b/s
Stream size : 316 Bytes (0%)
Language : Russian
Forced : No
Encoded date : UTC 2017-11-04 20:57:52
Tagged date : UTC 2017-11-04 20:57:53
Text #2
ID : 5
Format : Timed Text
Codec ID : tx3g
Duration : 1 h 56 min
Bit rate mode : Variable
Bit rate : 94 b/s
Stream size : 80.3 KiB (0%)
Language : Russian
Forced : No
Encoded date : UTC 2017-11-04 20:57:52
Tagged date : UTC 2017-11-04 20:57:53
Text #3
ID : 6
Format : Timed Text
Codec ID : tx3g
Duration : 1 h 48 min
Bit rate mode : Variable
Bit rate : 68 b/s
Stream size : 54.1 KiB (0%)
Language : English
Forced : No
Encoded date : UTC 2017-11-04 20:57:53
Tagged date : UTC 2017-11-04 20:57:53
Menu
00:00:00.000 : 00:00:00.000
00:05:25.867 : 00:05:25.867
00:09:35.742 : 00:09:35.742
00:13:32.854 : 00:13:32.854
00:19:32.755 : 00:19:32.755
00:29:48.870 : 00:29:48.870
00:34:29.901 : 00:34:29.901
00:40:00.732 : 00:40:00.732
00:45:11.334 : 00:45:11.334
00:52:55.422 : 00:52:55.422
00:59:37.407 : 00:59:37.407
01:04:15.769 : 01:04:15.769
01:12:49.615 : 01:12:49.615
01:20:03.215 : 01:20:03.215
01:25:11.898 : 01:25:11.898
01:31:53.299 : 01:31:53.299
01:35:24.010 : 01:35:24.010
01:40:48.876 : 01:40:48.876
01:45:04.590 : 01:45:04.590
01:49:45.579 : 01:49:45.579

Скриншоты

Данный рип предназначен для просмотра на мобильных гаджетах с поддержкой формата mp4
 GOLD TORRENT! DOWNLOAD TRAFFIC DOES NOT CONSIDER! 
Torrent: Registered [ 2017-11-06 00:49 ]   · 3D25AF347F6013A872669183D32B1E7B8330F3E0

Download .torrent

Download

20 KB

Status: checked
Completed: 0 times
Size: 1.92 GB
Поделиться:
terms.php
[Profile] [PM]
Display posts:    
Reply to topic

Current time is: 20-Jun 19:54

All times are UTC + 3



You cannot post new topics in this forum
You cannot reply to topics in this forum
You cannot edit your posts in this forum
You cannot delete your posts in this forum
You cannot vote in polls in this forum
You cannot attach files in this forum
You can download files in this forum