Смешарики. Дежавю (2018) BDRip 720p | Лицензия

Reply to topic
DL-List and Torrent activity [Update пиров]
Size:  4.25 GB   |    Registered:  3 years   |    Completed:  0 times
Seeders:  105  [  0 KB/s  ]   Leechers:  3  [  0 KB/s  ]   Show peers in full details
 
   
 
 
Author Message

admin ®

Gender: Male

Longevity: 3 years 10 months

Posts: 12744

Post 10-Jul-2018 21:04

[Quote]

Информация о фильме
Название: Смешарики. Дежавю
Год выхода: 2018
Жанр: Мультфильм, комедия, приключения, семейный
Страна: Россия
Перевод: Не требуется
Продолжительность: 01:25:03
Режиссер: Денис Чернов
Роли дублировали: Павел Деревянко, Антон Виноградов, Сергей Мардарь, Михаил Черняк, Владимир Постников, Светлана Письмиченко, Вадим Бочанов, Михаил Хрусталёв и др.
О фильме: Крош решает устроить незабываемый день рождения Копатыча — он обращается в агентство «Дежавю», которое обещает своим клиентам удивительные путешествия во времени. Но из-за несоблюдения условий договора всех смешариков раскидывает во времени, а Крошу придется собирать друзей по разным эпохам в компании своего второго «Я» — повзрослевшего и ворчливого Шорка, появившегося из-за временного парадокса.

Файл
Качество: BDRip 720p
Видео: MPEG-4 AVC, 1280x536, 5000 kbps, 24,000 fps
Звук#1: русский, DTS 5.1, 48 kHz, 1509 kbps | Лицензия
Звук#2: русский, AC3 5.1, 48 kHz, 640 kbps | Лицензия
Субтитры: нет

MI

General
Уникальный идентификатор : 170631887725385151285861216577762277903 (0x805E819691E38893B8854867B3E6BA0F)
Полное имя : F:TorrentSmeshariki2018BDRip720.mkv
Формат : Matroska
Версия формата : Version 4 / Version 2
Размер файла : 4.25 GiB
Продолжительность : 1 h 25 min
Общий поток : 7 150 kb/s
Дата кодирования : UTC 2018-07-10 10:51:56
Программа кодирования : mkvmerge v9.5.0 ('Quiet Fire') 64bit
Библиотека кодирования : libebml v1.3.4 + libmatroska v1.4.5
Video
Идентификатор : 1
Формат : AVC
Формат/Информация : Advanced Video Codec
Профиль формата : High@L4.1
Настройки формата : CABAC / 9 Ref Frames
Параметр CABAC формата : Yes
Параметр RefFrames формата : 9 frames
Идентификатор кодека : V_MPEG4/ISO/AVC
Продолжительность : 1 h 25 min
Битрейт : 5 000 kb/s
Ширина : 1 280 pixels
Высота : 536 pixels
Соотношение сторон : 2.40:1
Режим частоты кадров : Constant
Частота кадров : 24.000 FPS
Цветовое пространство : YUV
Субдискретизация насыщенности : 4:2:0
Битовая глубина : 8 bits
Тип развёртки : Progressive
Бит/(Пиксели*Кадры) : 0.304
Размер потока : 2.97 GiB (70%)
Библиотека кодирования : x264 core 155 r2901M 7d0ff22
Настройки программы : cabac=1 / ref=9 / deblock=1:-3:-3 / analyse=0x3:0x133 / me=umh / subme=11 / psy=1 / psy_rd=1.00:0.00 / mixed_ref=1 / me_range=48 / chroma_me=1 / trellis=2 / 8x8dct=1 / cqm=0 / deadzone=21,11 / fast_pskip=0 / chroma_qp_offset=-2 / threads=9 / lookahead_threads=2 / sliced_threads=0 / nr=0 / decimate=0 / interlaced=0 / bluray_compat=0 / constrained_intra=0 / bframes=10 / b_pyramid=2 / b_adapt=2 / b_bias=0 / direct=3 / weightb=1 / open_gop=0 / weightp=2 / keyint=240 / keyint_min=24 / scenecut=40 / intra_refresh=0 / rc_lookahead=120 / rc=2pass / mbtree=0 / bitrate=5000 / ratetol=1.0 / qcomp=0.70 / qpmin=0 / qpmax=69 / qpstep=4 / cplxblur=20.0 / qblur=0.5 / vbv_maxrate=50000 / vbv_bufsize=62500 / nal_hrd=none / filler=0 / ip_ratio=1.40 / pb_ratio=1.30 / aq=3:0.80
Default : Yes
Forced : No
Цветовой диапазон : Limited
Основные цвета : BT.709
Характеристики трансфера : BT.709
Коэффициенты матрицы : BT.709
Audio #1
Идентификатор : 2
Формат : DTS
Формат/Информация : Digital Theater Systems
Идентификатор кодека : A_DTS
Продолжительность : 1 h 25 min
Вид битрейта : Constant
Битрейт : 1 509 kb/s
Каналы : 6 channels
Расположение каналов : Front: L C R, Side: L R, LFE
Частота : 48.0 kHz
Частота кадров : 93.750 FPS (512 SPF)
Битовая глубина : 24 bits
Метод сжатия : Lossy
Размер потока : 918 MiB (21%)
Язык : Russian
Default : Yes
Forced : No
Audio #2
Идентификатор : 3
Формат : AC-3
Формат/Информация : Audio Coding 3
Идентификатор кодека : A_AC3
Продолжительность : 1 h 25 min
Вид битрейта : Constant
Битрейт : 640 kb/s
Каналы : 6 channels
Расположение каналов : Front: L C R, Side: L R, LFE
Частота : 48.0 kHz
Частота кадров : 31.250 FPS (1536 SPF)
Битовая глубина : 16 bits
Метод сжатия : Lossy
Размер потока : 389 MiB (9%)
Язык : Russian
Default : No
Forced : No
Menu
00:00:00.000 : en:Chapter 1
00:01:04.166 : en:Chapter 2
00:09:00.750 : en:Chapter 3
00:20:01.500 : en:Chapter 4
00:30:27.458 : en:Chapter 5
00:41:08.791 : en:Chapter 6
00:51:13.041 : en:Chapter 7
01:00:43.375 : en:Chapter 8
01:10:59.208 : en:Chapter 9

Скриншоты


 GOLD TORRENT! DOWNLOAD TRAFFIC DOES NOT CONSIDER! 
Torrent: Registered [ 2018-07-10 21:04 ]   · B41E6DDE4876B28B642DFF40ADA14064F9F69CA6

Download .torrent

Download

12 KB

Status: checked
Completed: 0 times
Size: 4.25 GB
Поделиться:
terms.php
[Profile] [PM]
Display posts:    
Reply to topic

Current time is: 30-Jul 17:32

All times are UTC + 3



You cannot post new topics in this forum
You cannot reply to topics in this forum
You cannot edit your posts in this forum
You cannot delete your posts in this forum
You cannot vote in polls in this forum
You cannot attach files in this forum
You can download files in this forum