Братья Супер Марио в кино / The Super Mario Bros. Movie (2023) WEB-DL 1080p от New-Team | D, P

Ответить на тему
Статистика раздачи
Размер:  6.23 GB   |    Зарегистрирован:  1 год 1 месяц   |    Скачан:  0 раз
Сидов:  22  [  0 KB/s  ]   Личеров:  1  [  0 KB/s  ]   Подробная статистика пиров
 
   
 
 
Автор Сообщение

admin ®

Статус: Не в сети

Стаж: 6 лет 9 месяцев

Сообщений: 23696

Репутация: 0 [+] [-]

Откуда: Россия

Создавать темы 18-Май-2023 03:30 | #1

[Цитировать]

Братья Супер Марио в кино / The Super Mario Bros. Movie
Год выпуска: 2022
Выпущено: США, Япония, Universal Pictures, Nintendo, Illumination Entertainment
Жанр: Мультфильм, фэнтези, приключения, комедия
Режиссер: Аарон Хорват / Aaron Horvath, Михаэль Еленик / Michael Jelenic
В ролях: Крис Пратт, Чарли Дэй, Аня Тейлор-Джой, Джек Блэк, Кигэн-Майкл Ки, Сет Роген, Фред Армисен, Себастьян Манискалко, Кевин Майкл Ричардсон, Хари Пэйтон
О фильме: Братья-водопроводчики Марио и Луиджи открывают портал в подземный город, из которого должны вызволить пленённую принцессу Пич и сразиться с заклятым врагом Боузером.

Продолжительность: 01:33:23
Перевод:
#1: Дублированный (неофициальный) | HotVoice 41
#2: Профессиональный (многоголосый, закадровый) | TVShows
Субтитры: Русские (Cool Story Blog), английские
Формат: MKV
Качество: WEB-DL 1080p | MA
Видео: MPEG-4 AVC, 8000 Кбит/с, 1920x1080
Аудио #1: AC3, 6 ch, 640 Кбит/с | RUS | HotVoice 41 -Thx.Wilmots
Аудио #1: AC3, 6 ch, 384 Кбит/с | RUS | TVShows
Аудио #2: E-AC3 JOC, 6 ch, 768 Кбит/с | ENG |

Скриншоты

-

MediaInfo

General
Unique ID : 28642736111119231175195111120772802725 (0x158C63EBC93654D6C22E720D942028A5)
Complete name : E:TorrentsThe.Super.Mario.Bros.Movie.2023.1080p.MA_от New-Team_JNS82.mkv
Format : Matroska
Format version : Version 4
File size : 6.23 GiB
Duration : 1 h 32 min
Overall bit rate : 9 656 kb/s
Movie name : The.Super.Mario.Bros.Movie.2023.1080p.MA_от New-Team_JNS82
Encoded date : UTC 2023-05-17 11:17:49
Writing application : mkvmerge v59.0.0 ('Shining Star') 64-bit
Writing library : libebml v1.4.2 + libmatroska v1.6.4
Video
ID : 1
Format : AVC
Format/Info : Advanced Video Codec
Format profile : High@L4
Format settings : CABAC / 4 Ref Frames
Format settings, CABAC : Yes
Format settings, Reference : 4 frames
Codec ID : V_MPEG4/ISO/AVC
Duration : 1 h 32 min
Bit rate : 8 000 kb/s
Width : 1 920 pixels
Height : 1 080 pixels
Display aspect ratio : 16:9
Frame rate mode : Constant
Frame rate : 23.976 (24000/1001) FPS
Color space : YUV
Chroma subsampling : 4:2:0
Bit depth : 8 bits
Scan type : Progressive
Bits/(Pixel*Frame) : 0.161
Stream size : 5.08 GiB (81%)
Writing library : x264 core 164 r3094 bfc87b7
Encoding settings : cabac=1 / ref=4 / deblock=1:-1:-1 / analyse=0x3:0x133 / me=umh / subme=9 / psy=1 / psy_rd=1.00:0.15 / mixed_ref=1 / me_range=16 / chroma_me=1 / trellis=2 / 8x8dct=1 / cqm=0 / deadzone=21,11 / fast_pskip=1 / chroma_qp_offset=-3 / threads=12 / lookahead_threads=1 / sliced_threads=0 / nr=0 / decimate=1 / interlaced=0 / bluray_compat=0 / stitchable=1 / constrained_intra=0 / bframes=3 / b_pyramid=2 / b_adapt=2 / b_bias=0 / direct=3 / weightb=1 / open_gop=0 / weightp=2 / keyint=48 / keyint_min=4 / scenecut=0 / intra_refresh=0 / rc_lookahead=48 / rc=abr / mbtree=1 / bitrate=8000 / ratetol=1.0 / qcomp=0.60 / qpmin=0 / qpmax=69 / qpstep=4 / vbv_maxrate=8800 / vbv_bufsize=16000 / nal_hrd=none / filler=0 / ip_ratio=1.40 / aq=1:1.00
Language : English
Default : Yes
Forced : No
Color range : Limited
Color primaries : BT.709
Transfer characteristics : BT.709
Matrix coefficients : BT.709
Audio #1
ID : 2
Format : AC-3
Format/Info : Audio Coding 3
Commercial name : Dolby Digital
Codec ID : A_AC3
Duration : 1 h 32 min
Bit rate mode : Constant
Bit rate : 640 kb/s
Channel(s) : 6 channels
Channel layout : L R C LFE Ls Rs
Sampling rate : 48.0 kHz
Frame rate : 31.250 FPS (1536 SPF)
Compression mode : Lossy
Stream size : 423 MiB (7%)
Title : DUB - HotVoice 41
Language : Russian
Service kind : Complete Main
Default : Yes
Forced : No
Audio #2
ID : 3
Format : AC-3
Format/Info : Audio Coding 3
Commercial name : Dolby Digital
Codec ID : A_AC3
Duration : 1 h 32 min
Bit rate mode : Constant
Bit rate : 384 kb/s
Channel(s) : 6 channels
Channel layout : L R C LFE Ls Rs
Sampling rate : 48.0 kHz
Frame rate : 31.250 FPS (1536 SPF)
Compression mode : Lossy
Stream size : 254 MiB (4%)
Title : MVO - TVShows
Language : Russian
Service kind : Complete Main
Default : No
Forced : No
Audio #3
ID : 4
Format : E-AC-3 JOC
Format/Info : Enhanced AC-3 with Joint Object Coding
Commercial name : Dolby Digital Plus with Dolby Atmos
Codec ID : A_EAC3
Duration : 1 h 32 min
Bit rate mode : Constant
Bit rate : 768 kb/s
Channel(s) : 6 channels
Channel layout : L R C LFE Ls Rs
Sampling rate : 48.0 kHz
Frame rate : 31.250 FPS (1536 SPF)
Compression mode : Lossy
Delay relative to video : 1 s 8 ms
Stream size : 508 MiB (8%)
Language : English
Service kind : Complete Main
Default : No
Forced : No
Complexity index : 16
Number of dynamic objects : 15
Bed channel count : 1 channel
Bed channel configuration : LFE
Text #1
ID : 5
Format : UTF-8
Codec ID : S_TEXT/UTF8
Codec ID/Info : UTF-8 Plain Text
Duration : 1 h 30 min
Bit rate : 54 b/s
Count of elements : 867
Stream size : 36.2 KiB (0%)
Title : full [Cool Story Blog]
Language : Russian
Default : No
Forced : No
Text #2
ID : 6
Format : UTF-8
Codec ID : S_TEXT/UTF8
Codec ID/Info : UTF-8 Plain Text
Duration : 1 h 31 min
Bit rate : 35 b/s
Count of elements : 989
Stream size : 23.7 KiB (0%)
Language : English
Default : No
Forced : No
Text #3
ID : 7
Format : UTF-8
Codec ID : S_TEXT/UTF8
Codec ID/Info : UTF-8 Plain Text
Duration : 1 h 32 min
Bit rate : 51 b/s
Count of elements : 1609
Stream size : 35.0 KiB (0%)
Title : SDH
Language : English
Default : No
Forced : No
Menu
00:00:01.008 : Chapter 01
00:04:46.126 : Chapter 02
00:11:23.774 : Chapter 03
00:17:11.872 : Chapter 04
00:21:43.393 : Chapter 05
00:27:17.144 : Chapter 06
00:33:38.900 : Chapter 07
00:38:36.365 : Chapter 08
00:45:02.626 : Chapter 09
00:50:52.267 : Chapter 10
00:55:49.439 : Chapter 11
01:01:25.859 : Chapter 12
01:07:00.110 : Chapter 13
01:12:52.504 : Chapter 14
01:18:21.375 : Chapter 15
01:26:10.635 : Chapter 16
[ivtracker.org].t40367.torrent 
 ЗОЛОТАЯ РАЗДАЧА! СКАЧАННОЕ НЕ ЗАСЧИТЫВАЕТСЯ! 
Торрент: Зарегистрирован [ 2023-05-18 03:30 ] · B2C6C6EC003C63F754A15E9051A5DCB876B295E1

Скачать .torrent

Скачать

16 KB

Статус: проверено · admin · 1 год 1 месяц назад
Скачан: 0 раз
Размер: 6.23 GB
Поделиться:
 
Похожие темы
[Профиль] [ЛС]
Вернуться к началу
Показать сообщения:    
Ответить на тему

Текущее время: 13-Июл 03:06

Часовой пояс: UTC + 3



Вы не можете начинать темы
Вы не можете отвечать на сообщения
Вы не можете редактировать свои сообщения
Вы не можете удалять свои сообщения
Вы не можете голосовать в опросах
Вы не можете прикреплять файлы к сообщениям
Вы можете скачивать файлы