Простоквашино: Сезон дождей [03] (2018) WEB-DL 1080р

Reply to topic
DL-List and Torrent activity [Update пиров]
Size:  243 MB   |    Registered:  3 years 1 month   |    Completed:  0 times
Seeders:  77  [  0 KB/s  ]   Show peers in full details
 
   
 
 
Author Message

admin ®

Gender: Male

Longevity: 3 years 10 months

Posts: 12744

Post 07-Jun-2018 07:15

[Quote]

Название: Простоквашино: Сезон дождей
Год выхода: 2018
Жанр: Мультфильм, семейный
Режиссер: Михаил Солошенко
Роли озвучивали: Антон Табаков, Юлия Меньшова, Иван Охлобыстин, Гарик Сукачёв, Алексей Онежен
О мультфильме: Казалось, никакие бури внешнего мира не смогут поколебать привычный и размеренный ход деревенской жизни Простоквашино. Время как будто застыло. Все так же каждое утро Матроскин дегустирует свежее молоко, полученное от своей любимицы — коровы Мурки. Все так же Шарик проводит время в окрестных лесах, «фотоохотясь» на редкую дичь. Правда, теперь он научился выкладывать фотографии своей добычи в интернет. И все так же, при каждой возможности, их навещает Дядя Федор. И тогда они весело и дружно проводят время своей мужской компанией. И когда им уже стало казаться, что так будет всегда, внезапно все изменилось с появлением одной маленькой девочки, родной сестры Дяди Фёдора. И имя этой девочки — Вера Павловна.

Производство: Россия / Союзмультфильм
Продолжительность: 00:06:29
Перевод: Не требуется
Субтитры: Отсутствуют
Файл
Формат: MKV
Качество: WEB-DL 1080р
Видео: MPEG-4 AVC, 5036 Кбит/с, 1920x1080
Аудио: 48 kHz, AC3 Dolby Digital, 2/0 (L,R) ch, ~192 kbps

MediaInfo

Общее
Уникальный идентификатор : 108648647852282464286894528482031511286 (0x51BCF7EB21F53418ED9473D1FAAD26F6)
Полное имя : Простоквашино “Сезон дождей“ - 3 серия.mkv
Формат : Matroska
Версия формата : Version 4 / Version 2
Размер файла : 243 Мбайт
Продолжительность : 6 м. 29 с.
Общий поток : 5229 Кбит/сек
Дата кодирования : UTC 2018-06-06 09:01:54
Программа кодирования : mkvmerge v23.0.0 ('The Bride Said No') 64-bit
Библиотека кодирования : libebml v1.3.6 + libmatroska v1.4.9
Видео
Идентификатор : 1
Формат : AVC
Формат/Информация : Advanced Video Codec
Профиль формата : Main@L5.1
Настройки формата : CABAC / 1 Ref Frames
Параметр CABAC формата : Да
Параметр RefFrames формата : 1 кадр
Идентификатор кодека : V_MPEG4/ISO/AVC
Продолжительность : 6 м. 29 с.
Битрейт : 5036 Кбит/сек
Ширина : 1920 пикселей
Высота : 1080 пикселей
Соотношение сторон : 16:9
Режим частоты кадров : Постоянный
Частота кадров : 25,000 кадров/сек
Цветовое пространство : YUV
Субдискретизация насыщенности : 4:2:0
Битовая глубина : 8 бит
Тип развёртки : Прогрессивная
Бит/(Пиксели*Кадры) : 0.097
Размер потока : 234 Мбайт (96%)
Default : Да
Forced : Нет
Аудио
Идентификатор : 2
Формат : AC-3
Формат/Информация : Audio Coding 3
Идентификатор кодека : A_AC3
Продолжительность : 6 м. 29 с.
Вид битрейта : Постоянный
Битрейт : 192 Кбит/сек
Каналы : 2 канала
Расположение каналов : Front: L R
Частота : 48,0 КГц
Частота кадров : 31,250 кадров/сек (1536 SPF)
Битовая глубина : 16 бит
Метод сжатия : С потерями
Размер потока : 8,93 Мбайт (4%)
Default : Да
Forced : Нет

Скриншоты

 GOLD TORRENT! DOWNLOAD TRAFFIC DOES NOT CONSIDER! 
Torrent: Registered [ 2018-06-07 07:15 ]   · 3907C17A6AC8D0522FCAC1A9EEB77CF8AEC747DD

Download .torrent

Download

20 KB

Status: checked
Completed: 0 times
Size: 243 MB
Поделиться:
terms.php
[Profile] [PM]
Display posts:    
Reply to topic

Current time is: 30-Jul 16:53

All times are UTC + 3



You cannot post new topics in this forum
You cannot reply to topics in this forum
You cannot edit your posts in this forum
You cannot delete your posts in this forum
You cannot vote in polls in this forum
You cannot attach files in this forum
You can download files in this forum