Побег из космоса / Boonie Bears: Back To Earth / Xiong chu mo: Chong fan di qiu (2022) WEB-DL 1080p от селезень | D

Ответить на тему
Статистика раздачи
Размер:  4.65 GB   |    Зарегистрирован:  1 год 11 месяцев   |    Скачан:  0 раз

Полного источника не было: Никогда

 
   
 
 
Автор Сообщение

admin ®

Статус: Не в сети

Стаж: 6 лет 9 месяцев

Сообщений: 23696

Репутация: 0 [+] [-]

Откуда: Россия

Создавать темы 07-Авг-2022 06:12 | #1

[Цитировать]

Побег из космоса / Boonie Bears: Back To Earth
Год выпуска: 2022
Жанр: Мультфильм, приключения, фантастика, боевик, полнометражный
Режиссер: Линь Хуэйда
В ролях: Биньюн Жанг, Крис Бойке, Чэн Цзиян, Киран Катари, Джозеф С. Ламберт, Ли Ваньяо, Шиван Ламсден, Пол «Макс» Райнхарт, Оливия Ситон-Хилл, Сара Секора

О фильме: Медведь Брэмбл всегда хотел стать героем. И однажды ему выпал шанс стать не просто героем, а супергероем. Познакомившись в лесу с пришельцем Эви, Брэмбл становится обладателем суперспособностей. Теперь он может реализовать любое желание одной силой мысли. Высокоразвитый народ Эви покинул Землю миллионы лет назад. И вот теперь Эви вернулся, чтобы передать новейшую технологию землянам, а также в надежде найти давно покинутый древний город и, может быть, свою семью. Однако следом за Эви из космоса прибывают пираты, которые хотят захватить власть во Вселенной. Медведь Брэмбл и его пушистые друзья должны помочь новому другу Эви и заодно спасти Вселенную.
Страна: Китай
Студия: Fantawild Animation
Продолжительность: 01:37:00
Перевод: Дублированный | Кинопоиск HD (Back Board Cinema)
Качество: WEB-DL 1080p
Видео: MPEG-4 AVC, 1920x808, 6000 Kbit/s, 24.000 fps
Аудио #01: 48 kHz, AC3, 5.1, 448 Kbps | Дублированный | Back Board Cinema | RUS |
Аудио #02: 48 kHz, E-AC3, 5.1, 448 Kbps | Дублированный | Back Board Cinema | RUS |
Субтитры: Отсутствуют

Скриншоты

MI

General
Unique ID : 58788746470275362325327948421466337221 (0x2C3A4CFC1E1B048D9D01EB56C15AAFC5)
Complete name : D:Boonie.Bears.Back.To.Earth.2022.WEB-DL.1080p.seleZen.mkv
Format : Matroska
Format version : Version 4
File size : 4.65 GiB
Duration : 1 h 37 min
Overall bit rate : 6 856 kb/s
Movie name : Boonie Bears: Back To Earth 2022 from seleZen
Encoded date : UTC 2022-08-06 21:40:44
Writing application : mkvmerge v59.0.0 ('Shining Star') 64-bit
Writing library : libebml v1.4.2 + libmatroska v1.6.4
Video
ID : 1
Format : AVC
Format/Info : Advanced Video Codec
Format profile : High@L4
Format settings : CABAC / 5 Ref Frames
Format settings, CABAC : Yes
Format settings, Reference : 5 frames
Codec ID : V_MPEG4/ISO/AVC
Duration : 1 h 37 min
Bit rate : 6 000 kb/s
Width : 1 920 pixels
Height : 808 pixels
Display aspect ratio : 2.40:1
Frame rate mode : Constant
Frame rate : 24.000 FPS
Color space : YUV
Chroma subsampling : 4:2:0
Bit depth : 8 bits
Scan type : Progressive
Bits/(Pixel*Frame) : 0.161
Stream size : 4.04 GiB (87%)
Writing library : x264 core 157
Encoding settings : cabac=1 / ref=5 / deblock=1:0:0 / analyse=0x3:0x133 / me=umh / subme=10 / psy=1 / psy_rd=1.00:0.00 / mixed_ref=1 / me_range=24 / chroma_me=1 / trellis=2 / 8x8dct=1 / cqm=0 / deadzone=21,11 / fast_pskip=1 / chroma_qp_offset=-2 / threads=25 / lookahead_threads=4 / sliced_threads=0 / nr=0 / decimate=1 / interlaced=0 / bluray_compat=0 / stitchable=1 / constrained_intra=0 / bframes=8 / b_pyramid=2 / b_adapt=2 / b_bias=0 / direct=3 / weightb=1 / open_gop=0 / weightp=2 / keyint=250 / keyint_min=24 / scenecut=40 / intra_refresh=0 / rc_lookahead=60 / rc=2pass / mbtree=1 / bitrate=6000 / ratetol=1.0 / qcomp=0.60 / qpmin=0 / qpmax=69 / qpstep=4 / cplxblur=20.0 / qblur=0.5 / vbv_maxrate=6600 / vbv_bufsize=24000 / nal_hrd=none / filler=0 / ip_ratio=1.40 / aq=1:1.00
Language : English
Default : Yes
Forced : No
Audio #1
ID : 2
Format : AC-3
Format/Info : Audio Coding 3
Commercial name : Dolby Digital
Codec ID : A_AC3
Duration : 1 h 37 min
Bit rate mode : Constant
Bit rate : 448 kb/s
Channel(s) : 6 channels
Channel layout : L R C LFE Ls Rs
Sampling rate : 48.0 kHz
Frame rate : 31.250 FPS (1536 SPF)
Compression mode : Lossy
Stream size : 311 MiB (7%)
Title : Dub
Language : Russian
Service kind : Complete Main
Default : Yes
Forced : Yes
Audio #2
ID : 3
Format : E-AC-3
Format/Info : Enhanced AC-3
Commercial name : Dolby Digital Plus
Codec ID : A_EAC3
Duration : 1 h 37 min
Bit rate mode : Constant
Bit rate : 448 kb/s
Channel(s) : 6 channels
Channel layout : L R C LFE Ls Rs
Sampling rate : 48.0 kHz
Frame rate : 31.250 FPS (1536 SPF)
Compression mode : Lossy
Stream size : 311 MiB (7%)
Title : Dub
Language : Russian
Service kind : Complete Main
Default : No
Forced : No
[ivtracker.org].t36772.torrent 
 ЗОЛОТАЯ РАЗДАЧА! СКАЧАННОЕ НЕ ЗАСЧИТЫВАЕТСЯ! 
Торрент: Зарегистрирован [ 2022-08-07 06:12 ] · 42638FEBB43258F0972E8405A8A88ADA57B63412

Скачать .torrent

Скачать

94 KB

Статус: проверено · admin · 1 год 11 месяцев назад
Скачан: 0 раз
Размер: 4.65 GB
Поделиться:
 
Похожие темы
[Профиль] [ЛС]
Вернуться к началу
Показать сообщения:    
Ответить на тему

Текущее время: 13-Июл 04:16

Часовой пояс: UTC + 3



Вы не можете начинать темы
Вы не можете отвечать на сообщения
Вы не можете редактировать свои сообщения
Вы не можете удалять свои сообщения
Вы не можете голосовать в опросах
Вы не можете прикреплять файлы к сообщениям
Вы можете скачивать файлы