Удача / Luck (2022) WEB-DL 1080p от EniaHD | D | Невафильм

Ответить на тему
Статистика раздачи
Размер:  8.97 GB   |    Зарегистрирован:  1 год 11 месяцев   |    Скачан:  0 раз

Полного источника не было: Никогда

 
   
 
 
Автор Сообщение

admin ®

Статус: Не в сети

Стаж: 6 лет 9 месяцев

Сообщений: 23696

Репутация: 0 [+] [-]

Откуда: Россия

Создавать темы 06-Авг-2022 04:52 | #1

[Цитировать]

Удача / Luck
Страна: США, Испания
Жанр: мультфильм, фэнтези, комедия, приключения, семейный
Год выпуска: 2022
Продолжительность: 01:45:26
Бюджет: $140 000 000
Перевод: Профессиональный (дублированный) | Невафильм
Режиссер: Пегги Холмс / Peggy Holmes
Роли озвучивали: Эва Ноблесада, Саймон Пегг, Джейн Фонда, Вупи Голдберг, Флула Борг, Лил Рел Ховери, Колин О’Донохью, Джон Ратценбергер, Аделин Спун
Описание: Сэм Гринфилд — самая невезучая девочка в мире! Внезапно оказавшись в невиданной Стране Удачи, она объединяется с населяющими её волшебными существами, чтобы вернуть своё везение.

Качество: WEB-DL 1080p
Контейнер: MKV
Видео: AVC, 1920x1038 (1.85:1), 23.976 fps, ~9882 kbps
Аудио №1: E-AC3 ATMOS, 48 kHz, 6 ch, 768 kbps
Аудио №2: E-AC3 ATMOS, 48 kHz, 6 ch, 768 kbps - Тифлокомментирование
Аудио №3: E-AC3 ATMOS, 48 kHz, 6 ch, 768 kbps
Субтитры: Русские (Forced, Full, SDH), английские (Full, SDH), иврит, украинские
Формат субтитров: softsub (SRT)

MediaInfo

General
Complete name : Luck.2022.1080p.ATVP.WEB-DL.DDP5.1.H.264-EniaHD.mkv
Format : Matroska
Format version : Version 4
File size : 8.97 GiB
Duration : 1 h 45 min
Overall bit rate : 12.2 Mb/s
Movie name : Luck (2022) - EniaHD
Writing application : mkvmerge v57.0.0 ('Till The End') 64-bit
Writing library : libebml v1.4.2 + libmatroska v1.6.4
Video
ID : 1
Format : AVC
Format/Info : Advanced Video Codec
Format profile : High@L4
Format settings : CABAC / 4 Ref Frames
Format settings, CABAC : Yes
Format settings, Reference fra : 4 frames
Codec ID : V_MPEG4/ISO/AVC
Duration : 1 h 45 min
Bit rate : 9 882 kb/s
Width : 1 920 pixels
Height : 1 038 pixels
Display aspect ratio : 1.85:1
Frame rate mode : Constant
Frame rate : 23.976 (24000/1001) FPS
Color space : YUV
Chroma subsampling : 4:2:0
Bit depth : 8 bits
Scan type : Progressive
Bits/(Pixel*Frame) : 0.207
Stream size : 7.28 GiB (81%)
Default : Yes
Forced : No
Color range : Limited
Color primaries : BT.709
Transfer characteristics : BT.709
Matrix coefficients : BT.709
Audio #1
ID : 2
Format : E-AC-3 JOC
Format/Info : Enhanced AC-3 with Joint Object Coding
Commercial name : Dolby Digital Plus with Dolby Atmos
Codec ID : A_EAC3
Duration : 1 h 45 min
Bit rate mode : Constant
Bit rate : 768 kb/s
Channel(s) : 6 channels
Channel layout : L R C LFE Ls Rs
Sampling rate : 48.0 kHz
Frame rate : 31.250 FPS (1536 SPF)
Compression mode : Lossy
Stream size : 579 MiB (6%)
Language : Russian
Service kind : Complete Main
Default : Yes
Forced : No
Complexity index : 16
Number of dynamic objects : 15
Bed channel count : 1 channel
Bed channel configuration : LFE
Audio #2
ID : 3
Format : E-AC-3 JOC
Format/Info : Enhanced AC-3 with Joint Object Coding
Commercial name : Dolby Digital Plus with Dolby Atmos
Codec ID : A_EAC3
Duration : 1 h 45 min
Bit rate mode : Constant
Bit rate : 768 kb/s
Channel(s) : 6 channels
Channel layout : L R C LFE Ls Rs
Sampling rate : 48.0 kHz
Frame rate : 31.250 FPS (1536 SPF)
Compression mode : Lossy
Stream size : 579 MiB (6%)
Title : Audio Deion
Language : Russian
Service kind : Complete Main
Default : No
Forced : No
Complexity index : 16
Number of dynamic objects : 15
Bed channel count : 1 channel
Bed channel configuration : LFE
Audio #3
ID : 4
Format : E-AC-3 JOC
Format/Info : Enhanced AC-3 with Joint Object Coding
Commercial name : Dolby Digital Plus with Dolby Atmos
Codec ID : A_EAC3
Duration : 1 h 45 min
Bit rate mode : Constant
Bit rate : 768 kb/s
Channel(s) : 6 channels
Channel layout : L R C LFE Ls Rs
Sampling rate : 48.0 kHz
Frame rate : 31.250 FPS (1536 SPF)
Compression mode : Lossy
Stream size : 579 MiB (6%)
Language : English
Service kind : Complete Main
Default : No
Forced : No
Complexity index : 16
Number of dynamic objects : 15
Bed channel count : 1 channel
Bed channel configuration : LFE
Text #1
ID : 5
Format : UTF-8
Codec ID : S_TEXT/UTF8
Codec ID/Info : UTF-8 Plain Text
Duration : 1 h 36 min
Bit rate : 4 b/s
Count of elements : 65
Stream size : 3.39 KiB (0%)
Title : Forced
Language : Russian
Default : Yes
Forced : No
Text #2
ID : 6
Format : UTF-8
Codec ID : S_TEXT/UTF8
Codec ID/Info : UTF-8 Plain Text
Duration : 1 h 44 min
Bit rate : 103 b/s
Count of elements : 1401
Stream size : 78.9 KiB (0%)
Language : Russian
Default : No
Forced : No
Text #3
ID : 7
Format : UTF-8
Codec ID : S_TEXT/UTF8
Codec ID/Info : UTF-8 Plain Text
Duration : 1 h 36 min
Bit rate : 126 b/s
Count of elements : 1626
Stream size : 88.7 KiB (0%)
Title : SDH
Language : Russian
Default : No
Forced : No
Text #4
ID : 8
Format : UTF-8
Codec ID : S_TEXT/UTF8
Codec ID/Info : UTF-8 Plain Text
Duration : 1 h 35 min
Bit rate : 69 b/s
Count of elements : 1371
Stream size : 48.8 KiB (0%)
Language : English
Default : No
Forced : No
Text #5
ID : 9
Format : UTF-8
Codec ID : S_TEXT/UTF8
Codec ID/Info : UTF-8 Plain Text
Duration : 1 h 36 min
Bit rate : 78 b/s
Count of elements : 1616
Stream size : 55.5 KiB (0%)
Title : SDH
Language : English
Default : No
Forced : No
Text #6
ID : 10
Format : UTF-8
Codec ID : S_TEXT/UTF8
Codec ID/Info : UTF-8 Plain Text
Duration : 1 h 44 min
Bit rate : 87 b/s
Count of elements : 1401
Stream size : 66.5 KiB (0%)
Language : Hebrew
Default : No
Forced : No
Text #7
ID : 11
Format : UTF-8
Codec ID : S_TEXT/UTF8
Codec ID/Info : UTF-8 Plain Text
Duration : 1 h 44 min
Bit rate : 102 b/s
Count of elements : 1404
Stream size : 78.2 KiB (0%)
Language : Ukrainian
Default : No
Forced : No

Скриншоты


[ivtracker.org].t36713.torrent 
 ЗОЛОТАЯ РАЗДАЧА! СКАЧАННОЕ НЕ ЗАСЧИТЫВАЕТСЯ! 
Торрент: Зарегистрирован [ 2022-08-06 04:52 ] · 8872B0522FFA38A8A002AC4BE5495329F69ACB33

Скачать .torrent

Скачать

46 KB

Статус: проверено · admin · 1 год 11 месяцев назад
Скачан: 0 раз
Размер: 8.97 GB
Поделиться:
 
Похожие темы
[Профиль] [ЛС]
Вернуться к началу
Показать сообщения:    
Ответить на тему

Текущее время: 13-Июл 04:08

Часовой пояс: UTC + 3



Вы не можете начинать темы
Вы не можете отвечать на сообщения
Вы не можете редактировать свои сообщения
Вы не можете удалять свои сообщения
Вы не можете голосовать в опросах
Вы не можете прикреплять файлы к сообщениям
Вы можете скачивать файлы