(Французский язык) Маззи в Гондоландии на французском / Muzzy in Gondoland French [1994, Обучающий, DVDRip, FRA]

Reply to topic
DL-List and Torrent activity
Size:  1.81 GB   |    Registered:  2 years   |    Completed:  0 times

Seeder not seen: Never

 
   
 
 
Author Message

admin ®

Gender: Male

Longevity: 2 years 8 months

Posts: 15610

Post 02-Jun-2018 04:05

[Quote]

Маззи в Гондоландии на французском / Muzzy in Gondoland French
Год выпуска: 1994
Страна: Великобритания
Жанр: Обучающий
Продолжительность: 2:31:04
Субтитры: внешние, английские + французскиеОписание: Muzzy in Gondoland - грамотный мультипликационный видеокурс для детей, который помогает сделать изучение французского языка веселым и занимательным. Большой Маззи - дружелюбное чудище из космоса - прибывает в Гондоландию, где встречается с Бобом, королевским садовником. Боб влюблен в принцессу Сильвию, но советник Короля Корвекс, который тоже любит принцессу, сажает Боба в тюрьму. Маззи решает помочь Бобу, и история начинается...Дети с интересом и увлечением будут смотреть 6-серийный мультфильм. одновременно изучая французский язык. Они научатся составлять простые предложения, вопросы и команды; называть цифры, цвета и дни недели; выучат некоторые основные существительные, глаголы и прилагательные по-французски, а также научатся использовать некоторые приветствия и вежливые выражения. Так как учеба с Маззи доставляет удовольствие, дети будут стремиться просмотреть видеофильм снова и снова, а это лучший способ закрепить понимание и запоминание того, что они видят и слышат.По-крайней мере, мой трехлетний сын, едва научившись говорить по-русски, смотрит английскую версию и уже начинает лепетать по-английски "Гудбай", "Окей" и пытается считать от 1 до 10 на английском. А от телевизора, когда в нем Маззи - просто не оторвать! У меня есть все версии, но французской на трекере я не видел. Поэтому раздаю.английская версия http://rutracker.org/forum/viewtopic.php?t=87242Качество: DVDRip
Формат: AVI
Видео кодек: XviD
Аудио кодек: MP3
Видео: DivX 5 400x272 29.97fps
Аудио: MP3 48000Hz stereo 96kbps

Скриншоты

MediaInfo

General
Format : AVI
Format/Info : Audio Video Interleave
File size : 683 MiB
Duration : 2 h 31 min
Overall bit rate : 632 kb/s
Writing library : VirtualDub build 14328/release
Video
ID : 0
Format : MPEG-4 Visual
Format settings, BVOP : No
Format settings, QPel : No
Format settings, GMC : No warppoints
Format settings, Matrix : Default (H.263)
Codec ID : DX50
Codec ID/Hint : DivX 5
Duration : 2 h 31 min
Bit rate : 524 kb/s
Nominal bit rate : 4 000 kb/s
Width : 400 pixels
Height : 272 pixels
Display aspect ratio : 3:2
Frame rate : 29.970 (30000/1001) FPS
Color space : YUV
Chroma subsampling : 4:2:0
Bit depth : 8 bits
Scan type : Progressive
Compression mode : Lossy
Bits/(Pixel*Frame) : 0.161
Stream size : 566 MiB (83%)
Writing library : DivX 5.0.5 (UTC 2003-04-24)
Audio
ID : 1
Format : MPEG Audio
Format version : Version 1
Format profile : Layer 3
Mode : Joint stereo
Mode extension : Intensity Stereo + MS Stereo
Codec ID : 55
Codec ID/Hint : MP3
Duration : 2 h 31 min
Bit rate mode : Constant
Bit rate : 96.0 kb/s
Channel(s) : 2 channels
Sampling rate : 48.0 kHz
Compression mode : Lossy
Stream size : 104 MiB (15%)
Alignment : Split accross interleaves
Interleave, duration : 33 ms (1.00 video frame)
Interleave, preload duration : 443 ms
 GOLD TORRENT! DOWNLOAD TRAFFIC DOES NOT CONSIDER! 
Torrent: Registered [ 2018-06-02 04:05 ]   · 18497275028E834D973172E6A4EEF79C5F77A1C6

Download .torrent

Download

19 KB

Status: checked
Completed: 0 times
Size: 1.81 GB
Поделиться:
terms.php
[Profile] [PM]
Display posts:    
Reply to topic

Current time is: 03-Jun 00:23

All times are UTC + 3



You cannot post new topics in this forum
You cannot reply to topics in this forum
You cannot edit your posts in this forum
You cannot delete your posts in this forum
You cannot vote in polls in this forum
You cannot attach files in this forum
You can download files in this forum