Чип и Дейл спешат на помощь / Chip 'n Dale: Rescue Rangers (2022) WEB-DL 1080p от New-Team | Jaskier

Ответить на тему
Статистика раздачи
Размер:  5.47 GB   |    Зарегистрирован:  2 года 1 месяц   |    Скачан:  0 раз

Полного источника не было: Никогда

 
   
 
 
Автор Сообщение

admin ®

Статус: Не в сети

Стаж: 6 лет 9 месяцев

Сообщений: 23696

Репутация: 0 [+] [-]

Откуда: Россия

Создавать темы 26-Май-2022 05:31 | #1

[Цитировать]

Чип и Дейл спешат на помощь / Chip 'n Dale: Rescue Rangers
Год выпуска: 2022
Выпущено: США, Mandeville Films, Walt Disney Pictures, Big Flick Rentals, The Moving Picture Company, Technicolor Limited
Жанр: Мультфильм, комедия, детектив, приключения, семейный
Режиссер: Акива Шаффер / Akiva Schaffer
В ролях: Энди Сэмберг, Джон Малэйни, КиКи Лэйн, Уилл Арнетт, Эрик Бана, Флула Борг, Дэннис Хэйсбёрт, Кигэн-Майкл Ки, Тресс МакНилл, Тим Робинсон-О фильме: «Чип и Дейл спешат на помощь» — известное шоу, в котором когда-то снимались бурундуки и их друзья. Прошло 30 лет. Чип стал страховым агентом, а Дейл зарабатывает, рассказывая о своих прежних успехах на разных фестивалях. Но когда пропадает их друг, бурундуки снова объединяются, чтобы спасти товарища.
-Продолжительность: 01:36:45
Перевод: Профессиональный, многоголосый закадровый (Jaskier)
Субтитры: Русские (Cool Story Blog), английские
Формат: MKV
Качество: WEB-DL 1080p
Видео: MPEG-4 AVC, 6873 Кбит/с, 1920x1080
Аудио #1: AC3, 6 ch, 448 Кбит/с | RUS | Tnx.KinoPub
Аудио #2: AC3 JOC, 6 ch, 768 Кбит/с | ENG |

Скриншоты

-

MediaInfo

General
Unique ID : 173417851284212605919363227420691516634 (0x827710325428D7231AACA01EA31BCCDA)
Complete name : E:TorrentsChip.n.Dale.2022.1080p_от New-Team.mkv
Format : Matroska
Format version : Version 4
File size : 5.47 GiB
Duration : 1 h 36 min
Overall bit rate mode : Variable
Overall bit rate : 8 091 kb/s
Movie name : Chip.n.Dale.2022.1080p_от New-Team
Encoded date : UTC 2022-05-25 03:29:59
Writing application : mkvmerge v59.0.0 ('Shining Star') 64-bit
Writing library : libebml v1.4.2 + libmatroska v1.6.4
Video
ID : 1
Format : AVC
Format/Info : Advanced Video Codec
Format profile : High@L4
Format settings : CABAC / 4 Ref Frames
Format settings, CABAC : Yes
Format settings, Reference : 4 frames
Codec ID : V_MPEG4/ISO/AVC
Duration : 1 h 36 min
Bit rate mode : Variable
Bit rate : 6 873 kb/s
Maximum bit rate : 12.7 Mb/s
Width : 1 920 pixels
Height : 1 080 pixels
Display aspect ratio : 16:9
Frame rate mode : Constant
Frame rate : 24.000 FPS
Color space : YUV
Chroma subsampling : 4:2:0
Bit depth : 8 bits
Scan type : Progressive
Bits/(Pixel*Frame) : 0.138
Stream size : 4.65 GiB (85%)
Language : English
Default : Yes
Forced : No
Color range : Limited
Color primaries : BT.709
Transfer characteristics : BT.709
Matrix coefficients : BT.709
Audio #1
ID : 2
Format : AC-3
Format/Info : Audio Coding 3
Commercial name : Dolby Digital
Codec ID : A_AC3
Duration : 1 h 36 min
Bit rate mode : Constant
Bit rate : 448 kb/s
Channel(s) : 6 channels
Channel layout : L R C LFE Ls Rs
Sampling rate : 48.0 kHz
Frame rate : 31.250 FPS (1536 SPF)
Compression mode : Lossy
Stream size : 310 MiB (6%)
Title : MVO - Jaskier
Language : Russian
Service kind : Complete Main
Default : Yes
Forced : No
Audio #2
ID : 3
Format : E-AC-3 JOC
Format/Info : Enhanced AC-3 with Joint Object Coding
Commercial name : Dolby Digital Plus with Dolby Atmos
Codec ID : A_EAC3
Duration : 1 h 36 min
Bit rate mode : Constant
Bit rate : 768 kb/s
Channel(s) : 6 channels
Channel layout : L R C LFE Ls Rs
Sampling rate : 48.0 kHz
Frame rate : 31.250 FPS (1536 SPF)
Compression mode : Lossy
Stream size : 532 MiB (9%)
Language : English
Service kind : Complete Main
Default : No
Forced : No
Complexity index : 16
Number of dynamic objects : 15
Bed channel count : 1 channel
Bed channel configuration : LFE
Text #1
ID : 4
Format : UTF-8
Codec ID : S_TEXT/UTF8
Codec ID/Info : UTF-8 Plain Text
Duration : 1 h 28 min
Bit rate : 155 b/s
Count of elements : 1447
Stream size : 101 KiB (0%)
Title : Cool Story Blog
Language : Russian
Default : No
Forced : No
Text #2
ID : 5
Format : UTF-8
Codec ID : S_TEXT/UTF8
Codec ID/Info : UTF-8 Plain Text
Duration : 1 h 35 min
Bit rate : 95 b/s
Count of elements : 1688
Stream size : 67.0 KiB (0%)
Title : SDH
Language : English
Default : No
Forced : No
Text #3
ID : 6
Format : UTF-8
Codec ID : S_TEXT/UTF8
Codec ID/Info : UTF-8 Plain Text
Duration : 1 h 28 min
Bit rate : 90 b/s
Count of elements : 1490
Stream size : 59.2 KiB (0%)
Language : English
Default : No
Forced : No
[ivtracker.org].t34525.torrent 
 ЗОЛОТАЯ РАЗДАЧА! СКАЧАННОЕ НЕ ЗАСЧИТЫВАЕТСЯ! 
Торрент: Зарегистрирован [ 2022-05-26 05:31 ] · 1FF6F4CFA31F00F446A8CE639B5FDEFC2CFEC38C

Скачать .torrent

Скачать

14 KB

Статус: проверено · admin · 2 года 1 месяц назад
Скачан: 0 раз
Размер: 5.47 GB
Поделиться:
 
Похожие темы
[Профиль] [ЛС]
Вернуться к началу
Показать сообщения:    
Ответить на тему

Текущее время: 13-Июл 04:27

Часовой пояс: UTC + 3



Вы не можете начинать темы
Вы не можете отвечать на сообщения
Вы не можете редактировать свои сообщения
Вы не можете удалять свои сообщения
Вы не можете голосовать в опросах
Вы не можете прикреплять файлы к сообщениям
Вы можете скачивать файлы