Вокруг света за 80 дней / Around the World in 80 Days (2021) BDRip 1080p от MegaPeer | iTunes

Ответить на тему
Статистика раздачи
Размер:  6.33 GB   |    Зарегистрирован:  2 года 7 месяцев   |    Скачан:  0 раз

Полного источника не было: Никогда

 
   
 
 
Автор Сообщение

admin ®

Статус: Не в сети

Стаж: 6 лет 9 месяцев

Сообщений: 23696

Репутация: 0 [+] [-]

Откуда: Россия

Создавать темы 06-Дек-2021 05:51 | #1

[Цитировать]


Информация о фильме
Название: Вокруг света за 80 дней
Оригинальное название: Around the World in 80 Days
Год выхода: 2021
Жанр: Мультфильм, комедия, приключения, семейный
Режиссер: Самуэль Турно
Роли озвучивают: Жюльен Крампон, Дамиен Фретте, Кэйси Чейз, Селин Ронте, Вероник Огеро, Эммануэль Гариджо, Гэбриел Ле Дозе, Серж Биаван, Мишель Арагоне, Грегори Кидель
О фильме:
Умнейший Паспарту всегда мечтал о путешествиях. На его удачу безрассудный Филеас согласился на безумное пари — обогнуть земной шар всего за 80 дней. Теперь двум совершенно непохожим друзьям предстоит совершить невозможное, а заодно увидеть весь мир, полный фантастических созданий, живописных мест и умопомрачительных приключений.


Страна: Франция, Бельгия
Студия: 22h22, Canal+ [fr], Centre National de la Cinématographie (CNC), Cinécap 3, Cinémage 14, Circus, Cottonwood Media, France 3 Cinéma, France Télévision, Indéfilms 8, Le Tax Shelter du Gouvernement Fédéral de Belgique, Mac Guff Ligne, OCS, Palatine Etoile 17, Procirep/Angicoa, Région de Bruxelles-Capitale, SG Image 2018, Sofica Manon 10, Studio Canal, uFund, uMedia Family
Продолжительность: 01:22:16
Перевод: Профессиональный (полное дублирование) | CPI Films | iTunes
Файл
Качество: BDRip 1080p
Исходник: Around.the.World.in.80.Days.2021.FRENCH.COMPLETE.BLURAY-4FR
Формат: MKV
Кодек: MPEG-4 AVC
Видео: 1920x800 (2.40:1), 24 fps, MPEG-4 AVC ~ 10 000 Kbps avg, 0.271 bit/pixel
Аудио: AC3, 48 kHz, 6 ch, ~384.00 kbps avg | русский | iTunes
Аудио: AC3, 48 kHz, 6 ch, ~640.00 kbps avg | французский |
Субтитры: Русские (форсированные)

Инфо-файл

Общее
Уникальный идентификатор : 253022402750428255715021809977792104028 (0xBE5A579ACC621E70BF5DCB29CC87865C)
Полное имя : Around.the.World.in.80.Days.2021.1080p.BluRay.DD.5.1.x264.MegaPeer.mkv
Формат : Matroska
Версия формата : Version 4
Размер файла : 6,33 Гбайт
Продолжительность : 1 ч. 22 м.
Общий поток : 11,0 Мбит/сек
Название фильма : Вокруг света за 80 дней / Around the World in 80 Days (2021)
Дата кодирования : UTC 2021-12-04 21:29:23
Программа кодирования : mkvmerge v15.0.0 ('Duel with the Devil') 64-bit
Библиотека кодирования : libebml v1.3.5 + libmatroska v1.4.5
Обложка : Yes
Attachments : cover.jpg / cover.jpg
Видео
Идентификатор : 1
Формат : AVC
Формат/Информация : Advanced Video Codec
Профиль формата : [email protected]
Настройки формата : CABAC / 4 Ref Frames
Параметр CABAC формата : Да
Параметр RefFrames формата : 4 кадра
Идентификатор кодека : V_MPEG4/ISO/AVC
Продолжительность : 1 ч. 22 м.
Битрейт : 10 000 Кбит/сек
Ширина : 1 920 пикселей
Высота : 800 пикселей
Соотношение сторон : 2,40:1
Режим частоты кадров : Постоянный
Частота кадров : 24,000 кадра/сек
Цветовое пространство : YUV
Субдискретизация насыщенности : 4:2:0
Битовая глубина : 8 бит
Тип развёртки : Прогрессивная
Бит/(Пиксели*Кадры) : 0.271
Размер потока : 5,74 Гбайт (91%)
Заголовок : stillet@MegaPeer
Библиотека кодирования : x264 core 161 r3018 db0d417
Настройки программы : cabac=1 / ref=4 / deblock=1:-3:-3 / analyse=0x3:0x113 / me=umh / subme=10 / psy=1 / psy_rd=1.00:0.00 / mixed_ref=1 / me_range=48 / chroma_me=1 / trellis=2 / 8x8dct=1 / cqm=0 / deadzone=21,11 / fast_pskip=0 / chroma_qp_offset=-2 / threads=24 / lookahead_threads=6 / sliced_threads=0 / nr=0 / decimate=0 / interlaced=0 / bluray_compat=0 / constrained_intra=0 / bframes=12 / b_pyramid=2 / b_adapt=2 / b_bias=0 / direct=3 / weightb=1 / open_gop=0 / weightp=2 / keyint=240 / keyint_min=24 / scenecut=40 / intra_refresh=0 / rc_lookahead=40 / rc=2pass / mbtree=0 / bitrate=10000 / ratetol=1.0 / qcomp=0.60 / qpmin=0 / qpmax=69 / qpstep=4 / cplxblur=20.0 / qblur=0.5 / vbv_maxrate=50000 / vbv_bufsize=62500 / nal_hrd=none / filler=0 / ip_ratio=1.40 / pb_ratio=1.30 / aq=1:1.10
Язык : French
Default : Да
Forced : Нет
Аудио #1
Идентификатор : 2
Формат : AC-3
Формат/Информация : Audio Coding 3
Коммерческое название : Dolby Digital
Идентификатор кодека : A_AC3
Продолжительность : 1 ч. 22 м.
Вид битрейта : Постоянный
Битрейт : 384 Кбит/сек
Каналы : 6 каналов
Channel layout : L R C LFE Ls Rs
Частота : 48,0 КГц
Частота кадров : 31,250 кадров/сек (1536 SPF)
Метод сжатия : С потерями
Размер потока : 226 Мбайт (3%)
Заголовок : DUB | CPI Films | iTunes
Язык : Russian
Service kind : Complete Main
Default : Да
Forced : Нет
Аудио #2
Идентификатор : 3
Формат : AC-3
Формат/Информация : Audio Coding 3
Коммерческое название : Dolby Digital
Идентификатор кодека : A_AC3
Продолжительность : 1 ч. 22 м.
Вид битрейта : Постоянный
Битрейт : 640 Кбит/сек
Каналы : 6 каналов
Channel layout : L R C LFE Ls Rs
Частота : 48,0 КГц
Частота кадров : 31,250 кадров/сек (1536 SPF)
Метод сжатия : С потерями
Размер потока : 377 Мбайт (6%)
Язык : French
Service kind : Complete Main
Default : Нет
Forced : Нет
Текст
Идентификатор : 4
Формат : UTF-8
Идентификатор кодека : S_TEXT/UTF8
Идентификатор кодека/Информация : UTF-8 Plain Text
Продолжительность : 1 ч. 3 м.
Битрейт : 0 бит/сек
Count of elements : 11
Размер потока : 215 байт (0%)
Заголовок : Forced
Язык : Russian
Default : Да
Forced : Нет
Меню
00:00:00.000 : :fre: 01
00:07:18.582 : :fre: 02
00:15:15.375 : :fre: 03
00:21:38.540 : :fre: 04
00:30:15.790 : :fre: 05
00:35:38.541 : :fre: 06
00:42:56.041 : :fre: 07
00:49:22.541 : :fre: 08
00:57:01.083 : :fre: 09
01:01:43.250 : :fre: 10
01:05:47.833 : :fre: 11
01:16:28.000 : :fre: 12
01:22:15.625 : :fre: 13

Скриншоты

[ivtracker.org].t29363.torrent 
 ЗОЛОТАЯ РАЗДАЧА! СКАЧАННОЕ НЕ ЗАСЧИТЫВАЕТСЯ! 
Торрент: Зарегистрирован [ 2021-12-06 05:51 ] · F4AD102F57C81F7786FCEA9D2C957645DDF7BE03

Скачать .torrent

Скачать

17 KB

Статус: проверено · admin · 2 года 7 месяцев назад
Скачан: 0 раз
Размер: 6.33 GB
Поделиться:
 
Похожие темы
[Профиль] [ЛС]
Вернуться к началу
Показать сообщения:    
Ответить на тему

Текущее время: 13-Июл 03:12

Часовой пояс: UTC + 3



Вы не можете начинать темы
Вы не можете отвечать на сообщения
Вы не можете редактировать свои сообщения
Вы не можете удалять свои сообщения
Вы не можете голосовать в опросах
Вы не можете прикреплять файлы к сообщениям
Вы можете скачивать файлы