Парни со стволами / War Dogs (2016) UHD BDRemux 2160p от ExKinoRay | 4K | HDR | D, A | Лицензия

Reply to topic
DL-List and Torrent activity
Size:  52.44 GB   |    Registered:  2 years 10 months   |    Completed:  0 times
Seeders:  2  [  0 KB/s  ]   Leechers:  10  [  0 KB/s  ]   Show peers in full details
 
   
 
 
Author Message

admin ®

Gender: Male

Longevity: 3 years

Posts: 10018

Post 31-Oct-2017 13:11

[Quote]

Информация о фильме
Название: Парни со стволами
Оригинальное название: War Dogs
Год выхода: 2016
Жанр: Драма, комедия, военный
Режиссер: Тодд Филлипс
В ролях: Майлз Теллер, Джона Хилл, Стив Лэнц, Грегг Уэйнер, Эдди Джемисон, Джулиан Сержи, Дэниэл Берсон, Эдсон Жан, Брэдли Купер
О фильме:
Реальная история о приятелях-планокурах из Майами, умудрившихся выбить в Пентагоне контракт на 300 миллионов долларов на поставку оружия.

Страна: США
Студия: Green Hat Films, Mark Gordon Company
Продолжительность: 01:54:13
Перевод(ы):
#1: Дублированный | Лицензия Blu-Ray CEE
#2: Авторский | Дмитрий Есарев
Файл
Качество: BDRemux 2160p
Видео: MPEG-H HEVC HDR Video, 3840x2160, 58.0 Mbit/s, 23.976 fps
Звук:
Аудио #01: 48 kHz, AC3, 5.1, 640 Kbps | Дублированный |
Аудио #02: 48 kHz, DTS-HD MA, 5.1, 3574 kbps | Авторский |
Аудио #03: 48 kHz, DTS-HD MA, 5.1, 3525 kbps | Оригинал |
Субтитры: Русские (forced, full), английские

MI

General
Unique ID : 234455030271491562775022343056310834754 (0xB06265769E0F098CA02ED83D8C969642)
Complete name : G:VideoSSDWar.Dogs.2016.BDREMUX.2160.4K.UltraHD.HEVC.HDR.ExKinoRay.mkv
Format : Matroska
Format version : Version 4 / Version 2
File size : 52.4 GiB
Duration : 1 h 54 min
Overall bit rate : 65.7 Mb/s
Movie name : Release by ExKinoRay
Encoded date : UTC 2017-10-31 03:15:39
Writing application : mkvmerge v17.0.0 ('Be Ur Friend') 64-bit
Writing library : libebml v1.3.5 + libmatroska v1.4.8
Cover : Yes
Attachments : cover.jpg
Video
ID : 1
Format : HEVC
Format/Info : High Efficiency Video Coding
Format profile : Main 10@L5.1@High
Codec ID : V_MPEGH/ISO/HEVC
Duration : 1 h 54 min
Bit rate : 58.0 Mb/s
Width : 3 840 pixels
Height : 2 160 pixels
Display aspect ratio : 16:9
Frame rate mode : Constant
Frame rate : 23.976 (24000/1001) FPS
Color space : YUV
Chroma subsampling : 4:2:0 (Type 2)
Bit depth : 10 bits
Bits/(Pixel*Frame) : 0.292
Stream size : 46.3 GiB (88%)
Writing library : ATEME Titan File 3.7.6 (4.7.6.101)
Language : English
Default : Yes
Forced : No
Color range : Limited
Color primaries : BT.2020
Transfer characteristics : PQ
Matrix coefficients : BT.2020 non-constant
Mastering display color pri : R: x=0.680000 y=0.320000, G: x=0.265000 y=0.690000, B: x=0.150000 y=0.060000, White point: x=0.312700 y=0.329000
Mastering display luminance : min: 0.0050 cd/m2, max: 4000.0000 cd/m2
Maximum Content Light Level : 1225 cd/m2
Maximum Frame-Average Light : 361 cd/m2
Audio #1
ID : 2
Format : AC-3
Format/Info : Audio Coding 3
Format settings, Endianness : Big
Codec ID : A_AC3
Duration : 1 h 54 min
Bit rate mode : Constant
Bit rate : 640 kb/s
Channel(s) : 6 channels
Channel positions : Front: L C R, Side: L R, LFE
Sampling rate : 48.0 kHz
Frame rate : 31.250 FPS (1536 SPF)
Bit depth : 16 bits
Compression mode : Lossy
Stream size : 523 MiB (1%)
Title : DUB [Blu-Ray CEE]
Language : Russian
Service kind : Complete Main
Default : Yes
Forced : No
Audio #2
ID : 3
Format : DTS
Format/Info : Digital Theater Systems
Format profile : MA / Core
Mode : 16
Format settings, Endianness : Big
Codec ID : A_DTS
Duration : 1 h 54 min
Bit rate mode : Variable / Constant
Bit rate : 3 574 kb/s / 1 509 kb/s
Channel(s) : 6 channels
Channel positions : Front: L C R, Side: L R, LFE
Sampling rate : 48.0 kHz
Frame rate : 93.750 FPS (512 SPF)
Bit depth : 24 bits
Compression mode : Lossless / Lossy
Stream size : 2.85 GiB (5%)
Title : AVO [Yesarev]
Language : Russian
Default : No
Forced : No
Audio #3
ID : 4
Format : DTS
Format/Info : Digital Theater Systems
Format profile : MA / Core
Mode : 16
Format settings, Endianness : Big
Codec ID : A_DTS
Duration : 1 h 54 min
Bit rate mode : Variable / Constant
Bit rate : 3 525 kb/s / 1 509 kb/s
Channel(s) : 6 channels
Channel positions : Front: L C R, Side: L R, LFE
Sampling rate : 48.0 kHz
Frame rate : 93.750 FPS (512 SPF)
Bit depth : 24 bits
Compression mode : Lossless / Lossy
Stream size : 2.81 GiB (5%)
Title : Original
Language : English
Default : No
Forced : No
Text #1
ID : 5
Format : UTF-8
Codec ID : S_TEXT/UTF8
Codec ID/Info : UTF-8 Plain Text
Duration : 1 h 48 min
Bit rate : 2 b/s
Count of elements : 42
Stream size : 1.77 KiB (0%)
Title : Forced
Language : Russian
Default : Yes
Forced : No
Text #2
ID : 6
Format : UTF-8
Codec ID : S_TEXT/UTF8
Codec ID/Info : UTF-8 Plain Text
Duration : 1 h 53 min
Bit rate : 110 b/s
Count of elements : 1297
Stream size : 91.5 KiB (0%)
Title : Full
Language : Russian
Default : No
Forced : No
Text #3
ID : 7
Format : UTF-8
Codec ID : S_TEXT/UTF8
Codec ID/Info : UTF-8 Plain Text
Duration : 1 h 47 min
Bit rate : 71 b/s
Count of elements : 1773
Stream size : 56.2 KiB (0%)
Title : Full
Language : English
Default : No
Forced : No
Text #4
ID : 8
Format : UTF-8
Codec ID : S_TEXT/UTF8
Codec ID/Info : UTF-8 Plain Text
Duration : 1 h 47 min
Bit rate : 76 b/s
Count of elements : 1921
Stream size : 60.3 KiB (0%)
Title : SDH
Language : English
Default : No
Forced : No
Menu
00:00:00.000 : en:Chapter 01
00:10:13.487 : en:Chapter 02
00:19:00.848 : en:Chapter 03
00:30:21.110 : en:Chapter 04
00:40:02.149 : en:Chapter 05
00:50:56.178 : en:Chapter 06
00:59:34.237 : en:Chapter 07
01:10:59.213 : en:Chapter 08
01:20:08.720 : en:Chapter 09
01:32:06.020 : en:Chapter 10
01:39:36.011 : en:Chapter 11
01:48:19.117 : en:Chapter 12

Примечание

Внимание! В авторской озвучке присутствует ненормативная лексика.

Скриншоты

 GOLD TORRENT! DOWNLOAD TRAFFIC DOES NOT CONSIDER! 
Torrent: Registered [ 2017-10-31 13:11 ]   · 98B817EBCAA343922B41C99B540EBEE3FF94A5A4

Download .torrent

Download

263 KB

Status: checked
Completed: 0 times
Size: 52.44 GB
Поделиться:
terms.php
[Profile] [PM]

Chernyshkov84

Gender: Male

Longevity: 3 months 1 day

Posts: 10

Location: Russia

Post 27-Jul-2020 18:07 (after 2 years 8 months)

[Quote]

В данной раздаче перепутаны дороги Чадова и Есарева.
И зачем сюда прикрутили какой-то самопальный оригинал в DTS-HD, когда на оригинальном диске Dolby Atmos/TrueHD Audio English 5904 kbps 7.1, который в разы лучше ?
Ещё в сети доступен перевод А. Гаврилова и кастомный DTS-HD дубляж.
[Profile] [PM]
Display posts:    
Reply to topic

Current time is: 30-Sep 10:07

All times are UTC + 3



You cannot post new topics in this forum
You cannot reply to topics in this forum
You cannot edit your posts in this forum
You cannot delete your posts in this forum
You cannot vote in polls in this forum
You cannot attach files in this forum
You can download files in this forum