XXIII Зимние Олимпийские игры. Хоккей. Мужчины. Финал. Россия - Германия [25.02] (2018) IPTVRip-AVC

Reply to topic
DL-List and Torrent activity [Update пиров]
Size:  2.63 GB   |    Registered:  3 years 10 months   |    Completed:  0 times
Seeders:  43  [  0 KB/s  ]   Show peers in full details
 
   
 
 
Author Message

admin ®

Gender: Male

Longevity: 4 years 3 months

Posts: 14738

Post 25-Feb-2018 23:22

[Quote]

Вид спорта: Хоккей
Дата эфира: 25.02.2018
Участники: Россия - Германия
Канал: Матч! Игра
Комментарий: Русский (Юрий Розанов, Денис Казанский, Алексей Бадюков, Дмитрий Лукашов)
Описание: C 1992 года наши хоккеисты не выигрывали Олимпийское золото!
Получится ли в Пхёнчхане?
Смотрим! Невероятная драматургия! Топ! Будет интересно...
Качество: IPTVRip-AVC
Формат: MKV
Видео: AVC, 2115 Кбит/сек, 720x576 (1046х576), 25.000 кадр/сек
Аудио: AAC LC, 192 Кбит/сек, 2 канала, 44.1 КГц - rus
Главы: Есть

Продолжительность

02:43:06

Составы

Скриншоты

Поддержите раздачу!!!

MI

Общее
Уникальный идентификатор : 165204393885708200817979748604997201405 (0x7C49357B508FC4F9B45CFBBD012EEDFD)
Полное имя : Россия - Германия.mkv
Формат : Matroska
Версия формата : Version 4 / Version 2
Размер файла : 2,63 Гбайт
Продолжительность : 2 ч. 43 м.
Общий поток : 2311 Кбит/сек
Дата кодирования : UTC 2018-02-25 07:46:03
Программа кодирования : mkvmerge v19.0.0 ('Brave Captain') 64-bit
Библиотека кодирования : libebml v1.3.5 + libmatroska v1.4.8
Видео
Идентификатор : 1
Формат : AVC
Формат/Информация : Advanced Video Codec
Профиль формата : High@L3
Настройки формата : CABAC / 4 Ref Frames
Параметр CABAC формата : Да
Параметр RefFrames формата : 4 кадра
Параметр GOP формата : M=4, N=28
Идентификатор кодека : V_MPEG4/ISO/AVC
Продолжительность : 2 ч. 43 м.
Битрейт : 2115 Кбит/сек
Ширина : 720 пикселей
Высота : 576 пикселей
Соотношение сторон : 16:9
Режим частоты кадров : Постоянный
Частота кадров : 25,000 кадров/сек
Стандарт вещания : Component
Цветовое пространство : YUV
Субдискретизация насыщенности : 4:2:0
Битовая глубина : 8 бит
Тип развёртки : Чересстрочная
Метод сохранения типа развёртки : Раздельные поля
Порядок развёртки : Верхнее поле первое
Бит/(Пиксели*Кадры) : 0.204
Размер потока : 2,41 Гбайт (92%)
Язык : Russian
Default : Нет
Forced : Нет
Цветовой диапазон : Limited
Основные цвета : BT.601 PAL
Характеристики трансфера : BT.470 System B, BT.470 System G
Коэффициенты матрицы : BT.470 System B, BT.470 System G
Аудио
Идентификатор : 2
Формат : AAC
Формат/Информация : Advanced Audio Codec
Профиль формата : LC
Идентификатор кодека : A_AAC-2
Продолжительность : 2 ч. 43 м.
Битрейт : 192 Кбит/сек
Каналы : 2 канала
Расположение каналов : Front: L R
Частота : 44,1 КГц
Частота кадров : 43,066 кадра/сек (1024 SPF)
Метод сжатия : С потерями
Задержка видео : 6 мс.
Размер потока : 225 Мбайт (8%)
Язык : Russian
Default : Нет
Forced : Нет
Меню
00:00:00.000 : en:Глава 01
00:10:00.000 : en:Глава 02
00:20:00.000 : en:Глава 03
00:30:00.000 : en:Глава 04
00:40:00.000 : en:Глава 05
00:50:00.000 : en:Глава 06
01:00:00.000 : en:Глава 07
01:10:00.000 : en:Глава 08
01:20:00.000 : en:Глава 09
01:30:00.000 : en:Глава 10
01:40:00.000 : en:Глава 11
01:50:00.000 : en:Глава 12
02:00:00.000 : en:Глава 13
02:10:00.000 : en:Глава 14
02:20:00.000 : en:Глава 15
02:30:00.000 : en:Глава 16
02:40:00.000 : en:Глава 17
 GOLD TORRENT! DOWNLOAD TRAFFIC DOES NOT CONSIDER! 
Torrent: Registered [ 2018-02-25 23:22 ]   · 4EB861ED094E84B47CACDE3B77A4EBEF15BAF7A5

Download .torrent

Download

14 KB

Status: checked
Completed: 0 times
Size: 2.63 GB
Поделиться:
terms.php
[Profile] [PM]
Display posts:    
Reply to topic

Current time is: 19-Jan 14:26

All times are UTC + 3



You cannot post new topics in this forum
You cannot reply to topics in this forum
You cannot edit your posts in this forum
You cannot delete your posts in this forum
You cannot vote in polls in this forum
You cannot attach files in this forum
You can download files in this forum