Новизна / Newness (2017) WEBRip 720p | L2

Reply to topic
DL-List and Torrent activity [Update пиров]
Size:  2.61 GB   |    Registered:  3 years 3 months   |    Completed:  0 times
Seeders:  4  [  0 KB/s  ]   Show peers in full details
 
   
 
 
Author Message

admin ®

Gender: Male

Longevity: 3 years 5 months

Posts: 10168

Post 06-Nov-2017 22:15

[Quote]

Информация о фильме
Название: Новизна
Оригинальное название: Newness
Год выхода: 2017
Жанр: Драма, мелодрама
Режиссер: Дрейк Доримус
В ролях: Николас Холт, Лайа Коста, Дэнни Хьюстон, Мэттью Грей Гублер, Люк Байбак, Рене Каде, Эва Сеха, Эльза Кокерел, Кортни Итон
О фильме:
Пара свободных минут, доступ в интернет и идеальное приложение для знакомств — все что нужно для быстрого поиска партнера на пару часов. 21 век. Своеобразная рулетка для любителей свиданий и дружеского секса без обязательств. Усилий никаких не требуется, вам остается только перемещаться по экрану смартфона легким скольжением пальцев, привередливо сжав губы. Дефицита вариантов нет.
Одиночество в сети или зависимость? Случайная ночная встреча Габи и Мартина на пару часов, казалось бы, не должна была ничего изменить. Но что-то пошло не так. И быстрое знакомство переросло в серьезные отношения, к которым, как оказалось, не были готовы ни он, ни она.

Страна: США, Lost City, Scott Free Productions
Продолжительность: 01:57:13
Перевод: Любительский (двухголосый закадровый) | RecentFilms
Файл
Кодек: MPEG-4 AVC/H.264
Качество: WEBRip 720p
Видео: 1280x532, 23,976 fps, ~3000 Kbps, 0.184 bit/pixel
Звук:
Аудио rus: AC3, 48 kHz, 2 ch, 192 Kbps
Субтитры: отсутствуют
Реклама: присутствует
Семпл

MediaInfo:

General
Unique ID : 218602551918833055604859029447916149183 (0xA47551EFD8535CBDB4C590119BF459BF)
Complete name : F:FilmsNewness.2017.720p.WEB-DLRip.RecentFilmsNewness.2017.720p.WEB-DLRip.RecentFilms.mkv
Format : Matroska
Format version : Version 4 / Version 2
File size : 2.61 GiB
Duration : 1h 57mn
Overall bit rate : 3 193 Kbps
Encoded date : UTC 2017-11-05 22:54:46
Writing application : mkvmerge v17.0.0 ('Be Ur Friend') 64-bit
Writing library : libebml v1.3.5 + libmatroska v1.4.8
Video
ID : 1
Format : AVC
Format/Info : Advanced Video Codec
Format profile : High@L3
Format settings, CABAC : No
Format settings, ReFrames : 1 frame
Codec ID : V_MPEG4/ISO/AVC
Duration : 1h 57mn
Bit rate : 3 000 Kbps
Width : 1 280 pixels
Height : 532 pixels
Display aspect ratio : 2.40:1
Frame rate mode : Constant
Frame rate : 23.976 (24000/1001) fps
Original frame rate : 23.976 (23976/1000) fps
Color space : YUV
Chroma subsampling : 4:2:0
Bit depth : 8 bits
Scan type : Progressive
Bits/(Pixel*Frame) : 0.184
Stream size : 2.46 GiB (94%)
Writing library : x264 core 148 r2665 a01e339
Encoding settings : cabac=0 / ref=1 / deblock=1:0:0 / analyse=0x3:0x113 / me=hex / subme=7 / psy=1 / psy_rd=1.00:0.00 / mixed_ref=0 / me_range=16 / chroma_me=1 / trellis=1 / 8x8dct=1 / cqm=0 / deadzone=21,11 / fast_pskip=1 / chroma_qp_offset=-2 / threads=12 / lookahead_threads=2 / sliced_threads=0 / nr=0 / decimate=1 / interlaced=0 / bluray_compat=0 / constrained_intra=0 / bframes=0 / weightp=2 / keyint=250 / keyint_min=23 / scenecut=40 / intra_refresh=0 / rc_lookahead=40 / rc=abr / mbtree=1 / bitrate=3000 / ratetol=1.0 / qcomp=0.60 / qpmin=0 / qpmax=69 / qpstep=4 / ip_ratio=1.40 / aq=1:1.00
Default : Yes
Forced : No
Audio
ID : 2
Format : AC-3
Format/Info : Audio Coding 3
Mode extension : CM (complete main)
Format settings, Endianness : Big
Codec ID : A_AC3
Duration : 1h 57mn
Bit rate mode : Constant
Bit rate : 192 Kbps
Channel(s) : 2 channels
Channel positions : Front: L R
Sampling rate : 48.0 KHz
Frame rate : 31.250 fps (1536 spf)
Compression mode : Lossy
Stream size : 161 MiB (6%)
Default : Yes
Forced : No

Скриншоты

 GOLD TORRENT! DOWNLOAD TRAFFIC DOES NOT CONSIDER! 
Torrent: Registered [ 2017-11-06 22:15 ]   · 2D80859F65E4A59FFC825C01453F6ECF9425EC4B

Download .torrent

Download

14 KB

Status: T temporary
Completed: 0 times
Size: 2.61 GB
Поделиться:
terms.php
[Profile] [PM]
Display posts:    
Reply to topic

Current time is: 28-Feb 22:32

All times are UTC + 3



You cannot post new topics in this forum
You cannot reply to topics in this forum
You cannot edit your posts in this forum
You cannot delete your posts in this forum
You cannot vote in polls in this forum
You cannot attach files in this forum
You can download files in this forum