Радиус / Radius (2017) WEB-DLRip 1080p | L

Reply to topic
DL-List and Torrent activity [Update пиров]
Size:  3.11 GB   |    Registered:  3 years 2 months   |    Completed:  0 times
Seeders:  7  [  0 KB/s  ]   Show peers in full details
 
   
 
 
Author Message

admin ®

Gender: Male

Longevity: 3 years 4 months

Posts: 10150

Post 08-Dec-2017 03:41

[Quote]

Информация о фильме
Название: Радиус
Оригинальное название: Radius
Год выхода: 2017
Жанр: фантастика, триллер
Режиссер: Кэролайн Лабреш, Steeve Léonard
В ролях: Диего Клаттенхофф, Шарлотта Салливан, Роберт Боргес, Андреа дель Кампо, Назарий Демкович, Бретт Донахью, Andrea Houssin, Алисия Джонстон, Trevor Kristjanson, Гарт Меркели
О фильме:
Очнувшись после автомобильной аварии, Лиам не может ничего вспомнить. Он пытается найти помощь, но на его пути встречаются лишь мертвые тела. Первая догадка — вирус, распространяющийся по воздуху.

Страна: Канада
Студии: EMA Films, Peripatetic Pictures, Title Media
Продолжительность: 01:33:09
Перевод: Любительский многоголосый [Студия "Paradox" & Omskbird records]
• Перевод: Оксана Графутко
• Роли озвучивали: Семен Ващенко, Алексей Гнеушев, Дмитрий Виноградов, Марина Гассан
• Звукорежиссер: Павел Квентов
Присутствует реклама!
Файл
Кодек: MKV (H.264)
Качество: WEB-DLRip 1080p
Видео: MPEG-4 AVC, 4332 kbps, 1912x800, 23.976 fps
Звук: 48 kHz, AC3 Dolby Digital, 2/0 (L,R) ch, ~448 kbps

MediaInfo

Format : Matroska
Format version : Version 4 / Version 2
File size : 3.11 GiB
Duration : 1 h 33 min
Overall bit rate : 4 782 kb/s
Encoded date : UTC 2017-12-07 08:38:18
Writing application : mkvmerge v9.3.1 ('Mask Machine') 64bit
Writing library : libebml v1.3.4 + libmatroska v1.4.5
Video
ID : 1
Format : AVC
Format/Info : Advanced Video Codec
Format profile : Main@L4.1
Format settings, CABAC : Yes
Format settings, ReFrames : 4 frames
Format settings, GOP : M=4, N=23
Codec ID : V_MPEG4/ISO/AVC
Duration : 1 h 33 min
Bit rate : 4 332 kb/s
Width : 1 912 pixels
Height : 800 pixels
Display aspect ratio : 2.40:1
Frame rate mode : Constant
Frame rate : 23.976 (24000/1001) FPS
Standard : NTSC
Color space : YUV
Chroma subsampling : 4:2:0
Bit depth : 8 bits
Scan type : Progressive
Bits/(Pixel*Frame) : 0.118
Stream size : 2.82 GiB (91%)
Language : English
Default : Yes
Forced : No
Color range : Limited
Color primaries : BT.709
Transfer characteristics : BT.709
Matrix coefficients : BT.709
Audio
ID : 2
Format : AC-3
Format/Info : Audio Coding 3
Mode extension : CM (complete main)
Format settings, Endianness : Big
Codec ID : A_AC3
Duration : 1 h 33 min
Bit rate mode : Constant
Bit rate : 448 kb/s
Channel(s) : 2 channels
Channel positions : Front: L R
Sampling rate : 48.0 kHz
Frame rate : 31.250 FPS (1536 spf)
Compression mode : Lossy
Stream size : 299 MiB (9%)
Default : Yes
Forced : No

Скриншоты

 GOLD TORRENT! DOWNLOAD TRAFFIC DOES NOT CONSIDER! 
Torrent: Registered [ 2017-12-08 03:41 ]   · 541152A05AE064C7EF8CF673629A807BA377A837

Download .torrent

Download

16 KB

Status: T temporary
Completed: 0 times
Size: 3.11 GB
Поделиться:
terms.php
[Profile] [PM]
Display posts:    
Reply to topic

Current time is: 25-Feb 16:43

All times are UTC + 3



You cannot post new topics in this forum
You cannot reply to topics in this forum
You cannot edit your posts in this forum
You cannot delete your posts in this forum
You cannot vote in polls in this forum
You cannot attach files in this forum
You can download files in this forum