Евгений Гришковец. Шёпот сердца (Павел Судаков) [2017, моноспектакль, WEB-DL-AVC]

Reply to topic
DL-List and Torrent activity
Size:  5.6 GB   |    Registered:  2 years 10 months   |    Completed:  0 times

Seeder not seen: Never

 
   
 
 
Author Message

admin ®

Gender: Male

Longevity: 3 years

Posts: 10018

Post 28-Nov-2017 03:05

[Quote]

Евгений Гришковец. Шёпот сердца
Жанр: Моноспектакль
Год выпуска: 2017
Продолжительность: 02:07:58
Перевод: Не требуется
Язык: Русский
Субтитры: нет
Оригинальная аудиодорожка: русский
Режиссёр: Павел Судаков
В ролях: Евгений Гришковец
Описание: Евгений Гришковец, который «переменил представления о жанре моноспектакля и даже сам стал определенным «жанром»», называет «Шёпот сердца» своей самой необычной и самой сокровенной работой.«Это мой шестой монолог за семнадцать лет работы, над замыслом которого я думал больше пяти лет, а он мне никак не давался. Три с лишним года назад я даже подумывал отказаться от него и сделал «Прощание с бумагой». Однако, снова и снова я возвращался к «Шёпоту сердца»… Это было время крайне тщательного и неспешного подбора слов и смыслов».
Качество видео: WEB-DL
Формат видео: MP4Видео: MPEG4 Video (H264) 1920x1080 25fps 6005kbps [V: Apple Video Media Handler [eng] (h264 constrained baseline L4.0, yuv420p, 1920x1080, 6005 kb/s)]
Аудио: AAC 48000Hz mono 255kbps [A: Apple Sound Media Handler [eng] (aac, 48000 Hz, mono, 255 kb/s)]

MediaInfo

General
Complete name : D:\Uploads\Евгений Гришковец. Щепот сердца. Моноспектакль.WEB-DL.1080p.mp4
Format : MPEG-4
Format profile : Base Media / Version 2
Codec ID : mp42
File size : 5.60 GiB
Duration : 2h 7mn
Overall bit rate : 6 265 Kbps
Encoded date : UTC 2017-03-06 17:59:12
Tagged date : UTC 2017-03-06 18:01:00Video
ID : 1
Format : AVC
Format/Info : Advanced Video Codec
Format profile : Baseline@L4.0
Format settings, CABAC : No
Format settings, ReFrames : 2 frames
Codec ID : avc1
Codec ID/Info : Advanced Video Coding
Duration : 2h 7mn
Bit rate mode : Variable
Bit rate : 6 005 Kbps
Width : 1 920 pixels
Height : 1 080 pixels
Display aspect ratio : 16:9
Frame rate mode : Constant
Frame rate : 25.000 fps
Resolution : 8 bits
Colorimetry : 4:2:0
Scan type : Progressive
Bits/(Pixel*Frame) : 0.116
Stream size : 5.37 GiB (96%)
Language : English
Encoded date : UTC 2017-03-06 17:59:08
Tagged date : UTC 2017-03-06 18:01:00
Color primaries : BT.709-5, BT.1361, IEC 61966-2-4, SMPTE RP177
Transfer characteristics : BT.709-5, BT.1361
Matrix coefficients : BT.709-5, BT.1361, IEC 61966-2-4 709, SMPTE RP177Audio
ID : 2
Format : AAC
Format/Info : Advanced Audio Codec
Format version : Version 4
Format profile : LC
Format settings, SBR : No
Format settings, PS : Yes
Codec ID : 40
Duration : 2h 7mn
Bit rate mode : Constant
Bit rate : 256 Kbps
Channel(s) : 2 channels
Channel positions : Front: L R
Sampling rate : 48.0 KHz
Stream size : 234 MiB (4%)
Language : English
Encoded date : UTC 2017-03-06 17:59:08
Tagged date : UTC 2017-03-06 18:01:00

Скриншот с названием постановки

Скриншоты

 GOLD TORRENT! DOWNLOAD TRAFFIC DOES NOT CONSIDER! 
Torrent: Registered [ 2017-11-28 03:05 ]   · 9AE065CE92BA47155C6C960135670A7D6BA094F9

Download .torrent

Download

57 KB

Status: checked
Completed: 0 times
Size: 5.6 GB
Поделиться:
terms.php
[Profile] [PM]

admin ®

Gender: Male

Longevity: 3 years

Posts: 10018

Post 17-Sep-2019 13:42 (after 1 year 9 months)

[Quote]

21493Приветствую всех! интересный у вас сайт!
Сылки на сторонние сайты отличные от https://ivtracker.org/ запрещены!Второго предупреждения не будет!
[Profile] [PM]
Display posts:    
Reply to topic

Current time is: 01-Oct 22:02

All times are UTC + 3



You cannot post new topics in this forum
You cannot reply to topics in this forum
You cannot edit your posts in this forum
You cannot delete your posts in this forum
You cannot vote in polls in this forum
You cannot attach files in this forum
You can download files in this forum