Неверные [S01] (2024) WEB-DL 1080p

Ответить на тему
Статистика раздачи
Размер:  11.55 GB   |    Зарегистрирован:  2 месяца 23 дня   |    Скачан:  0 раз
Сидов:  102  [  0 KB/s  ]   Личеров:  66  [  0 KB/s  ]   Подробная статистика пиров
 
   
 
 
Автор Сообщение

admin ®

Статус: Не в сети

Стаж: 6 лет 9 месяцев

Сообщений: 23696

Репутация: 0 [+] [-]

Откуда: Россия

Создавать темы 19-Апр-2024 04:48 | #1

[Цитировать]

Информация о фильме
Название: Неверные
Год выхода: 2024
Жанр: Драма
Режиссёр: Алексей Кузмин-Тарасов
В ролях: Оксана Акиньшина, Роман Евдокимов, Егор Дружинин, Иван Добронравов, Евдокия Германова, Нелли Уварова, Мила Ершова, Лидия Вележева, Алёна Хмельницкая, Евгений Санников, Павел Баршак, Евгений Романцов, Надежда Сысоева, Василий Мичков, Алиса Шевердина, Юлия Мандрико, Алексей Сошин, Кирилл Авалиани, Марина Карлышева, Елизавета Калугина, Валентин Ельцов, Анастасия Цыбульская, Кристина Работенко, Ольга Сергеева, Полина Крикунова, Полина Аршук, Татьяна Тихменёва, Мария Чувилина, Елена Квасникова, Эврика Аллавердонц, Илья Шидловский, Александр Десятов, Виктор Конухин, Александр Буянов, Александр Голубков, Татьяна Волкова, Сергей Тезов, Павел Данекин, Сергей Новосад, Карина Александрова, Влад Коноплёв, Давид Сократян, Евгений Потапенко, Виктор Васильев, Мария Большова, Игорь Лизенгевич, Елена Дробышева, Наталья Батрак, Альянура Третьякова, Андрей Назимов, Егор Заховаев, Мария Лукьянова, Анна Осипова, Виктория Лим, Артем Семакин, Сергей Калашник, Дарья Войновская, Сергей Масленников, Екатерина Иванова, Георгий Тополага, Николай Трифилов, Аделина Мнацаканова, Амбарцум Кабанян, Кирилл Якушенко
О фильме:
Потеряв себя, Ольга Шилковская лишается и единственного сына. Когда муж забирает у нее ребенка, она принимает решение вернуться к адвокатской практике и делает карьеру на бракоразводных и семейных процессах. Но спасти себя оказывается сложнее, чем стать медийным и успешным адвокатом. К Ольге приходят за помощью, когда оказываются в безвыходной ситуации и нет возможности разрешить конфликт мирным путем. Она находит нестандартные выходы из положения, чтобы не доводить дело до суда. Никто не знает, как тяжело это дается ей на самом деле.


Страна: Россия
Студия: НМГ Студия, Видеопрокат, Видеосервис Wink
Продолжительность: 8 х ~ 00:50:00
Язык: Русский
Премьера в Росcии: 07 марта 2024 года
Цифровой релиз: 07 марта 2024 года
Примечание: Без рекламы
Возраст: 18+
Файл
Формат: MKV
Качество: WEB-DL 1080p
Видео: MPEG-4 AVC, ~ 4000 Кбит/с, 1920x1080
Звук: AC3, 2 ch, 192 Кбит/с
Субтитры: Отсутствуют

Скриншоты

MI

Общее
Уникальный идентификатор : 49289947742889091118134975560361983643 (0x2514E60CB74DB8E453EB2B552CB43E9B)
Полное имя : C:UsersAdminDesktopNevernye.S01.2024.WEB-DL.1080pNevernye.S01.E01.2024.WEB-DL.1080p.mkv
Формат : Matroska
Версия формата : Version 4
Размер файла : 1,40 Гбайт
Продолжительность : 49 м. 38 с.
Режим общего битрейта : Постоянный
Общий поток : 4 032 Кбит/сек
Название фильма : Nevernye.S01.E01.2024.WEB-DL.1080p
Дата кодирования : UTC 2024-03-06 22:02:25
Программа кодирования : mkvmerge v82.0 ('I'm The President') 64-bit
Библиотека кодирования : libebml v1.4.5 + libmatroska v1.7.1
Attachments : poster.jpg
Видео
Идентификатор : 1
Формат : AVC
Формат/Информация : Advanced Video Codec
Профиль формата : High@L4
Настройки формата : CABAC / 3 Ref Frames
Параметр CABAC формата : Да
Параметр RefFrames формата : 3 кадра
Идентификатор кодека : V_MPEG4/ISO/AVC
Продолжительность : 49 м. 38 с.
Вид битрейта : Постоянный
Битрейт : 4 000 Кбит/сек
Ширина : 1 920 пикселей
Высота : 1 080 пикселей
Соотношение сторон : 16:9
Режим частоты кадров : Постоянный
Частота кадров : 25,000 кадров/сек
Цветовое пространство : YUV
Субдискретизация насыщенности : 4:2:0
Битовая глубина : 8 бит
Тип развёртки : Прогрессивная
Бит/(Пиксели*Кадры) : 0.077
Размер потока : 1,33 Гбайт (95%)
Default : Да
Forced : Нет
Аудио
Идентификатор : 2
Формат : AC-3
Формат/Информация : Audio Coding 3
Коммерческое название : Dolby Digital
Идентификатор кодека : A_AC3
Продолжительность : 49 м. 38 с.
Вид битрейта : Постоянный
Битрейт : 192 Кбит/сек
Каналы : 2 канала
Channel layout : L R
Частота : 48,0 КГц
Частота кадров : 31,250 кадров/сек (1536 SPF)
Метод сжатия : С потерями
Размер потока : 68,2 Мбайт (5%)
Заголовок : [Original | 2.0 AC-3 Audio]
Язык : Russian
Service kind : Complete Main
Default : Да
Forced : Нет
[ivtracker.org].t41399.torrent 
 ЗОЛОТАЯ РАЗДАЧА! СКАЧАННОЕ НЕ ЗАСЧИТЫВАЕТСЯ! 
Торрент: Зарегистрирован [ 2024-04-19 04:48 ] · 48D32C4FEBC8BCCF58F2F14D12E77590FCF35E69

Скачать .torrent

Скачать

30 KB

Статус: проверено · admin · 2 месяца 23 дня назад
Скачан: 0 раз
Размер: 11.55 GB
Поделиться:
 
Похожие темы
[Профиль] [ЛС]
Вернуться к началу
Показать сообщения:    
Ответить на тему

Текущее время: 13-Июл 04:29

Часовой пояс: UTC + 3



Вы не можете начинать темы
Вы не можете отвечать на сообщения
Вы не можете редактировать свои сообщения
Вы не можете удалять свои сообщения
Вы не можете голосовать в опросах
Вы не можете прикреплять файлы к сообщениям
Вы можете скачивать файлы