Притхвирадж / Samrat Prithviraj (2022) WEB-DL 1080p | D

Ответить на тему
Статистика раздачи
Размер:  4.04 GB   |    Зарегистрирован:  10 месяцев 19 дней   |    Скачан:  0 раз
Сидов:  3  [  0 KB/s  ]   Личеров:  3  [  0 KB/s  ]   Подробная статистика пиров
 
   
 
 
Автор Сообщение

admin ®

Статус: Не в сети

Стаж: 6 лет 9 месяцев

Сообщений: 23696

Репутация: 0 [+] [-]

Откуда: Россия

Создавать темы 06-Сен-2023 04:14 | #1

[Цитировать]

Информация о фильме
Название: Притхвирадж
Оригинальное название: Samrat Prithviraj
Год выпуска: 2022
Производство: Индия / Yash Raj Films
Жанр: биография, военный, драма, история, боевик
Режиссер: Чандра Пракаш Двиведи
Продюсер: Адитья Чопра, Бхарат Равайл, Санджай Шивалкар
Актеры: Акшай Кумар, Санджай Датт, Ашутош Рана, Сакши Танвар, Сону Суд, Мануши Чхиллар, Манав Видж, Маной Джоши, Раджендра Гупта, Арун Бали

Описание:
О легендарном царе Притхвирадже III, который во второй половине XII века правил большим царством на севере современной Индии. Он был одним из последних правителей-индуистов, и длительное время войска под его командованием успешно противостояли мусульманской агрессии.
Продолжительность: 02:12:47
Перевод: Дублированный (The Kitchen Russia)
Язык озвучки: Русский
Субтитры: Отсутствуют
Файл
Качество: WEB-DL 1080p
Формат: MKV
Видео: AVC/H.264, 1920x804, ~3900 Kbps
Аудио: E-AC3, 6 ch, 448 Kbps - Русский (DUB)

Скриншоты

M/I

General
Unique ID : 196764030083969014686190659281647921571 (0x94075FAE310BDAE21EDB10991F7969A3)
Complete name : Samrat Prithviraj (2022) WEB-DL 1080p.mkv
Format : Matroska
Format version : Version 4
File size : 4.04 GiB
Duration : 2 h 12 min
Overall bit rate : 4 353 kb/s
Encoded date : UTC 2023-08-29 15:39:24
Writing application : mkvmerge v75.0.0 ('Goliath') 64-bit
Writing library : libebml v1.4.4 + libmatroska v1.7.1
Video
ID : 1
Format : AVC
Format/Info : Advanced Video Codec
Format profile : High@L4
Format settings : CABAC / 5 Ref Frames
Format settings, CABAC : Yes
Format settings, Reference frames : 5 frames
Codec ID : V_MPEG4/ISO/AVC
Duration : 2 h 12 min
Bit rate : 3 904 kb/s
Nominal bit rate : 6 000 kb/s
Width : 1 920 pixels
Height : 804 pixels
Display aspect ratio : 2.40:1
Frame rate mode : Constant
Frame rate : 24.000 FPS
Color space : YUV
Chroma subsampling : 4:2:0
Bit depth : 8 bits
Scan type : Progressive
Bits/(Pixel*Frame) : 0.105
Stream size : 3.62 GiB (90%)
Title : Притхвирадж (2022) WEB-DL 1080p
Writing library : x264 core 157
Encoding settings : cabac=1 / ref=5 / deblock=1:0:0 / analyse=0x3:0x133 / me=umh / subme=10 / psy=1 / psy_rd=1.00:0.00 / mixed_ref=1 / me_range=24 / chroma_me=1 / trellis=2 / 8x8dct=1 / cqm=0 / deadzone=21,11 / fast_pskip=1 / chroma_qp_offset=-2 / threads=25 / lookahead_threads=4 / sliced_threads=0 / nr=0 / decimate=1 / interlaced=0 / bluray_compat=0 / stitchable=1 / constrained_intra=0 / bframes=8 / b_pyramid=2 / b_adapt=2 / b_bias=0 / direct=3 / weightb=1 / open_gop=0 / weightp=2 / keyint=250 / keyint_min=24 / scenecut=40 / intra_refresh=0 / rc_lookahead=96 / rc=abr / mbtree=1 / bitrate=6000 / ratetol=1.0 / qcomp=0.60 / qpmin=0 / qpmax=69 / qpstep=4 / vbv_maxrate=6600 / vbv_bufsize=12000 / nal_hrd=none / filler=0 / ip_ratio=1.40 / aq=1:1.00
Language : Hindi
Default : Yes
Forced : No
Color range : Limited
Color primaries : BT.709
Transfer characteristics : BT.709
Matrix coefficients : BT.709
Audio
ID : 2
Format : E-AC-3
Format/Info : Enhanced AC-3
Commercial name : Dolby Digital Plus
Codec ID : A_EAC3
Duration : 2 h 12 min
Bit rate mode : Constant
Bit rate : 448 kb/s
Channel(s) : 6 channels
Channel layout : L R C LFE Ls Rs
Sampling rate : 48.0 kHz
Frame rate : 31.250 FPS (1536 SPF)
Compression mode : Lossy
Stream size : 426 MiB (10%)
Title : DUB (The Kitchen Russia)
Language : Russian
Service kind : Complete Main
Default : Yes
Forced : No
[ivtracker.org].t41093.torrent 
 ЗОЛОТАЯ РАЗДАЧА! СКАЧАННОЕ НЕ ЗАСЧИТЫВАЕТСЯ! 
Торрент: Зарегистрирован [ 2023-09-06 04:14 ] · 21B76ADC74A5C331F6B9EB11AD5E6F99793CE41C

Скачать .torrent

Скачать

21 KB

Статус: проверено · admin · 10 месяцев 19 дней назад
Скачан: 0 раз
Размер: 4.04 GB
Поделиться:
 
[Профиль] [ЛС]
Вернуться к началу
Показать сообщения:    
Ответить на тему

Текущее время: 25-Июл 22:30

Часовой пояс: UTC + 3



Вы не можете начинать темы
Вы не можете отвечать на сообщения
Вы не можете редактировать свои сообщения
Вы не можете удалять свои сообщения
Вы не можете голосовать в опросах
Вы не можете прикреплять файлы к сообщениям
Вы можете скачивать файлы