Delain - Hunter's Moon (2019) BDRip-HEVC 1080p от RIPS CLUB

Ответить на тему
Статистика раздачи
Размер:  3.25 GB   |    Зарегистрирован:  10 месяцев 24 дня   |    Скачан:  0 раз
Сидов:  2  [  0 KB/s  ]   Личеров:  1  [  0 KB/s  ]   Подробная статистика пиров
 
   
 
 
Автор Сообщение

admin ®

Статус: Не в сети

Стаж: 6 лет 6 месяцев

Сообщений: 23695

Репутация: 0 [+] [-]

Откуда: Россия

Создавать темы 29-Май-2023 01:19 | #1

[Цитировать]


Название: Hunter's Moon
Исполнитель: Delain
Год производства: 2019
Год записи: 2017
Производство: Австрия / Napalm Records
Жанр: Heavy Metal, Symphonic Rock
О фильме: На диске Blu-Ray концертные треки, записанные 31.10.2017 вживую в Тиволи, Утрехт (Нидерланды). Delain - нидерландская группа, исполняющая музыку в стиле «симфонический метал», была основана Мартейном Вестерхольтом, бывшим клавишником Within Temptation. Группа провела в 2016 году свой десятый юбилей - с выпуском своего пятого полноформатного альбома Moonbathers и юбилейного выпуска своего дебютного диска Lucidity с обширными гастролями по Европе и Северной Америке.
Продолжительность: 00:47:51
Перевод: отсутствует
Качество: BDRip-HEVC 1080p
Кодек: HEVC (x265)
Видео: 1920x1080 (16:9), 7426 Кбит/сек, HEVC ([email protected]@High) 10 бит
Звук:
Аудио1: PCM, 2 ch, 2304 Kbps - Английский
Субтитры: отсутствуют
Навигация по главам: Есть

Лог (x265 info) + Mediainfo

x265 [info]: frame I: 371, Avg QP:15.37 kb/s: 13608.92
x265 [info]: frame P: 27259, Avg QP:16.91 kb/s: 11623.23
x265 [info]: frame B: 58432, Avg QP:19.66 kb/s: 5426.68
x265 [info]: Weighted P-Frames: Y:23.0% UV:20.9%
x265 [info]: Weighted B-Frames: Y:33.3% UV:26.8%
x265 [info]: encoded 86062 frames in 79218.69s (1.09 fps), 7424.63 kb/s, Avg QP:18.77
Общее
Уникальный идентификатор : 257844156317561371915673584021342411190 (0xC1FAFA68F01B094577CE95EA43CA59B6)
Полное имя : .Delain.Hunter's.Moon.2019.BDRip-HEVC.1080p.mkv
Формат : Matroska
Версия формата : Version 4
Размер файла : 3,25 Гбайт
Продолжительность : 47 м. 51 с.
Общий поток : 9 732 Кбит/сек
Частота кадров : 29,970 кадров/сек
Дата кодирования : 2023-05-28 15:40:10 UTC
Программа кодирования : mkvmerge v76.0 ('Celebration') 64-bit
Библиотека кодирования : libebml v1.4.4 + libmatroska v1.7.1
Обложка : Yes
Attachments : cover.jpg
Видео
Идентификатор : 1
Формат : HEVC
Формат/Информация : High Efficiency Video Coding
Профиль формата : Main [email protected]@High
Идентификатор кодека : V_MPEGH/ISO/HEVC
Продолжительность : 47 м. 51 с.
Битрейт : 7 426 Кбит/сек
Ширина : 1 920 пикселей
Высота : 1 080 пикселей
Соотношение сторон : 16:9
Режим частоты кадров : Постоянный
Частота кадров : 29,970 (30000/1001) кадров/сек
Цветовое пространство : YUV
Субдискретизация насыщенности : 4:2:0
Битовая глубина : 10 бит
Бит/(Пиксели*Кадры) : 0.119
Размер потока : 2,48 Гбайт (76%)
Заголовок : Delain - Hunter's Moon / Rip by OldGamer
Библиотека кодирования : x265 3.5+102-34532bda1:[Windows][GCC 13.1.0][64 bit] 10bit
Настройки программы : cpuid=1111039 / frame-threads=3 / numa-pools=8 / wpp / no-pmode / no-pme / no-psnr / no-ssim / log-level=2 / input-csp=1 / input-res=1920x1080 / interlace=0 / total-frames=86062 / level-idc=41 / high-tier=1 / uhd-bd=0 / ref=5 / no-allow-non-conformance / no-repeat-headers / annexb / no-aud / no-eob / no-eos / no-hrd / info / hash=0 / temporal-layers=0 / open-gop / min-keyint=23 / keyint=240 / gop-lookahead=0 / bframes=16 / b-adapt=2 / b-pyramid / bframe-bias=0 / rc-lookahead=40 / lookahead-slices=0 / scenecut=40 / no-hist-scenecut / radl=0 / no-splice / no-intra-refresh / ctu=32 / min-cu-size=8 / rect / amp / max-tu-size=32 / tu-inter-depth=4 / tu-intra-depth=4 / limit-tu=1 / rdoq-level=2 / dynamic-rd=0.00 / no-ssim-rd / signhide / no-tskip / nr-intra=0 / nr-inter=0 / no-constrained-intra / no-strong-intra-smoothing / max-merge=5 / limit-refs=3 / no-limit-modes / me=3 / subme=7 / merange=57 / temporal-mvp / no-frame-dup / no-hme / weightp / weightb / no-analyze-src-pics / deblock=-2:-2 / no-sao / no-sao-non-deblock / rd=6 / selective-sao=0 / no-early-skip / no-rskip / no-fast-intra / no-tskip-fast / no-cu-lossless / b-intra / no-splitrd-skip / rdpenalty=0 / psy-rd=2.00 / psy-rdoq=1.00 / no-rd-refine / no-lossless / cbqpoffs=0 / crqpoffs=0 / rc=crf / crf=21.0 / qcomp=0.70 / qpstep=4 / stats-write=0 / stats-read=0 / vbv-maxrate=50000 / vbv-bufsize=50000 / vbv-init=0.9 / min-vbv-fullness=50.0 / max-vbv-fullness=80.0 / crf-max=0.0 / crf-min=0.0 / ipratio=1.40 / pbratio=1.30 / aq-mode=3 / aq-strength=1.00 / no-cutree / zone-count=1 / zones: / start-frame=85522 / end-frame=86062 / qp=36 / no-strict-cbr / qg-size=32 / no-rc-grain / qpmax=69 / qpmin=0 / no-const-vbv / sar=1 / overscan=0 / videoformat=5 / range=0 / colorprim=2 / transfer=2 / colormatrix=2 / chromaloc=0 / display-window=0 / cll=0,0 / min-luma=0 / max-luma=1023 / log2-max-poc-lsb=8 / vui-timing-info / vui-hrd-info / slices=1 / no-opt-qp-pps / no-opt-ref-list-length-pps / no-multi-pass-opt-rps / scenecut-bias=0.00 / no-opt-cu-delta-qp / no-aq-motion / no-hdr10 / no-hdr10-opt / no-dhdr10-opt / no-idr-recovery-sei / analysis-reuse-level=0 / analysis-save-reuse-level=0 / analysis-load-reuse-level=0 / scale-factor=0 / refine-intra=0 / refine-inter=0 / refine-mv=1 / refine-ctu-distortion=0 / no-limit-sao / ctu-info=0 / no-lowpass-dct / refine-analysis-type=0 / copy-pic=1 / max-ausize-factor=1.0 / no-dynamic-refine / no-single-sei / no-hevc-aq / no-svt / no-field / qp-adaptation-range=1.00 / scenecut-aware-qp=0conformance-window-offsets / right=0 / bottom=0 / decoder-max-rate=0 / no-vbv-live-multi-pass / no-mcstf / no-sbrc
Язык : English
Default : Да
Forced : Нет
Аудио
Идентификатор : 2
ID in the original source medium : 4352 (0x1100)
Формат : PCM
Настройки формата : Little / Signed
Идентификатор кодека : A_PCM/INT/LIT
Продолжительность : 47 м. 51 с.
Вид битрейта : Постоянный
Битрейт : 2 304 Кбит/сек
Каналы : 2 канала
Частота : 48,0 КГц
Частота кадров : 30,000 кадров/сек (1600 SPF)
Битовая глубина : 24 бит
Размер потока : 789 Мбайт (24%)
Язык : English
Default : Да
Forced : Нет
Носитель оригинала : Blu-ray
Меню
00:00:00.000 : en:Hands Of Gold
00:05:12.712 : en:Danse Macabre
00:10:36.602 : en:Scarlet
00:15:15.614 : en:Your Body Is A Battleground
00:19:17.890 : en:Nothing Left
00:24:28.200 : en:Control The Storm
00:28:50.428 : en:Sing To Me
00:33:34.345 : en:Not Enough
00:38:22.033 : en:Scandal
00:42:41.091 : en:The Gathering

Скриншоты

Трек-лист

1. Hands Of Gold – Live (feat. George Oosthoek)
2. Danse Macabre Intro – Live
3. Scarlet – Live
4. Your Body is a Battleground – Live (feat. Marco Hietala)
5. Nothing Left – Live (feat. Marco Hietala)
6. Control The Storm – Live (feat. Marco Hietala)
7. Sing To Me – Live (feat. Marco Hietala)
8. Not Enough – Live
9. Scandal – Live (feat. Marco Hietala)
10. The Gathering – Live (feat. Marco Hietala)
[ivtracker.org].t40765.torrent 
 ЗОЛОТАЯ РАЗДАЧА! СКАЧАННОЕ НЕ ЗАСЧИТЫВАЕТСЯ! 
Торрент: Зарегистрирован [ 2023-05-29 01:19 ] · 65FCFA7693108E5FF04677AE17089256265D9470

Скачать .torrent

Скачать

17 KB

Статус: проверено · admin · 10 месяцев 24 дня назад
Скачан: 0 раз
Размер: 3.25 GB
Поделиться:
 
Похожие темы
[Профиль] [ЛС]
Вернуться к началу
Показать сообщения:    
Ответить на тему

Текущее время: 22-Апр 03:50

Часовой пояс: UTC + 3



Вы не можете начинать темы
Вы не можете отвечать на сообщения
Вы не можете редактировать свои сообщения
Вы не можете удалять свои сообщения
Вы не можете голосовать в опросах
Вы не можете прикреплять файлы к сообщениям
Вы можете скачивать файлы