Миссис Дэвис / Mrs. Davis [S01] (2023) WEBRip | HDrezka Studio

Ответить на тему
Статистика раздачи
Размер:  6.33 GB   |    Зарегистрирован:  1 год   |    Скачан:  0 раз
Сидов:  41  [  0 KB/s  ]   Личеров:  3  [  0 KB/s  ]   Подробная статистика пиров
 
   
 
 
Автор Сообщение

admin ®

Статус: Не в сети

Стаж: 6 лет 8 месяцев

Сообщений: 23696

Репутация: 0 [+] [-]

Откуда: Россия

Создавать темы 22-Май-2023 03:57 | #1

[Цитировать]

Информация о фильме
Название: Миссис Дэвис
Оригинальное название: Mrs. Davis
Год выхода: 2023
Жанр: фантастика, драма, комедия
Режиссер: Оуэн Харрис, Алетеа Джонс, Фред Туа
В ролях: Бетти Гилпин, Джейк Макдорман, Энди Маккуин, Крис Диамантополос, Эли Генри, Катя Херберс, Том Влашиха, Элизабет Марвел, Джек Фоли, Матильда Олливье
О фильме: Человечество по всему миру находит утешение благодаря голосовой помощнице Миссис Дэвис — дальней родственнице Siri и Алисы, которая многим заменила бога. Среди тех, кто не поддается проискам ИИ, — монахиня из Флориды Симона (Бетти Гилпин из «Блеска» и «Охоты»), винящая Миссис Дэвис в смерти отца. Однако именно ее искусственный глас божий выбирает для выполнения важнейшей миссии — найти священный Грааль.
Сценарист Дэймон Линделоф всегда был интенсивно неравнодушен к вопросам предназначения и веры: работал над «Остаться в живых» и одной из версий «Прометея», написал «Оставленных» и сиквел «Хранителей». В «Миссис Дэвис» он вместе с Тарой Эрнандес («Теория большого взрыва») предлагает новый взгляд на божественное в эпоху ChatGPT — с роялями в пустыне, чревом кита и монахиней на мотоцикле.

Страна: США
Студия: Warner Bros. Television
Продолжительность: ~00:55:00 серия
Перевод: Профессиональный (многоголосый, закадровый) HDrezka Studio
Файл
Качество: WEBRip
Формат: AVI
Видео: 720x304 at 23.976 fps, XviD, ~1600 kbps avg
Аудио#1: Russian: 48 kHz, AC3, 2/0 (L,R) ch, ~192 kbps avg |Многоголосый закадровый, HDrezka Studio|
Аудио#2: English: 48 kHz, AC3, 2/0 (L,R) ch, ~192 kbps avg
Субтитры: Russian (Forced |HDr|)
***Примечание: Без рекламы

MediaInfo

General
Complete name : Mrs.Davis.S01.WEBRip.HDrezka StudioMrs.Davis.S01.E01.Rus.Eng.RG.Anonymous.avi
Format : AVI
Format/Info : Audio Video Interleave
File size : 792 MiB
Duration : 55 min 25 s
Overall bit rate : 1 997 kb/s
Writing application : VirtualDubMod 1.5.10.2 (build 2540/release)
Writing library : VirtualDubMod build 2540/release
Video #0
ID : 0
Format : MPEG-4 Visual
Format profile : Advanced Simple@L5
Format settings : BVOP1
Format settings, BVOP : 1
Format settings, QPel : No
Format settings, GMC : No warppoints
Format settings, Matrix : Default (H.263)
Codec ID : XVID
Codec ID/Hint : XviD
Duration : 55 min 25 s
Bit rate : 1 599 kb/s
Width : 720 pixels
Height : 304 pixels
Display aspect ratio : 2.35:1
Frame rate : 23.976 (24000/1001) FPS
Color space : YUV
Chroma subsampling : 4:2:0
Bit depth : 8 bits
Scan type : Progressive
Compression mode : Lossy
Bits/(Pixel*Frame) : 0.305
Stream size : 634 MiB (80%)
Writing library : XviD 69
Audio #1
ID : 1
Format : AC-3
Format/Info : Audio Coding 3
Codec ID : 2000
Duration : 55 min 25 s
Bit rate mode : Constant
Bit rate : 192 kb/s
Channel(s) : 2 channels
Channel positions : Front: L R
Sampling rate : 48.0 kHz
Frame rate : 31.250 FPS (1536 SPF)
Bit depth : 16 bits
Compression mode : Lossy
Stream size : 76.1 MiB (10%)
Alignment : Split accross interleaves
Interleave, duration : 42 ms (1.00 video frame)
Interleave, preload duration : 500 ms
Service kind : Complete Main
Audio #2
ID : 2
Format : AC-3
Format/Info : Audio Coding 3
Codec ID : 2000
Duration : 55 min 25 s
Bit rate mode : Constant
Bit rate : 192 kb/s
Channel(s) : 2 channels
Channel positions : Front: L R
Sampling rate : 48.0 kHz
Frame rate : 31.250 FPS (1536 SPF)
Bit depth : 16 bits
Compression mode : Lossy
Stream size : 76.1 MiB (10%)
Alignment : Split accross interleaves
Interleave, duration : 42 ms (1.00 video frame)
Interleave, preload duration : 500 ms
Service kind : Complete Main

Скриншоты

[ivtracker.org].t40581.torrent 
 ЗОЛОТАЯ РАЗДАЧА! СКАЧАННОЕ НЕ ЗАСЧИТЫВАЕТСЯ! 
Торрент: Зарегистрирован [ 2023-05-22 03:57 ] · 4B9154C76681D5483B1B90017A27DEB6ED020071

Скачать .torrent

Скачать

34 KB

Статус: проверено · admin · 1 год назад
Скачан: 0 раз
Размер: 6.33 GB
Поделиться:
 
Похожие темы
[Профиль] [ЛС]
Вернуться к началу
Показать сообщения:    
Ответить на тему

Текущее время: 19-Июн 06:27

Часовой пояс: UTC + 3



Вы не можете начинать темы
Вы не можете отвечать на сообщения
Вы не можете редактировать свои сообщения
Вы не можете удалять свои сообщения
Вы не можете голосовать в опросах
Вы не можете прикреплять файлы к сообщениям
Вы можете скачивать файлы