Ниер: Автомата. Версия 1.1а / Nier: Automata Ver 1.1a / Nier: Automata Ver1.1a [01x01-02 из 12] (2023) WEB-DL 1080p | D | Flarrow Films

Ответить на тему
Статистика раздачи
Размер:  2.38 GB   |    Зарегистрирован:  1 год 5 месяцев   |    Скачан:  0 раз
Сидов:  2  [  0 KB/s  ]   Подробная статистика пиров
 
   
 
 
Автор Сообщение

admin ®

Статус: Не в сети

Стаж: 6 лет 9 месяцев

Сообщений: 23696

Репутация: 0 [+] [-]

Откуда: Россия

Создавать темы 25-Янв-2023 04:10 | #1

[Цитировать]

Информация о фильме
Название: Ниер: Автомата. Версия 1.1а
Оригинальное название: Nier: Automata Ver 1.1a / Nier: Automata Ver1.1a
Год выхода: 2023
Жанр: аниме, мультфильм, фантастика, боевик
Режиссер: Рёдзи Масуяма
В ролях: Кейко Танабе, Мэри Хацуми, Каору Акияма, Тиаки Кано, Юи Исикава, Нацуки Хана, Хироки Ясумото, Аои Юки, Дайсукэ Намикава, Ацуми Танидзаки
О фильме:
В 5012 году Землю атаковали инопланетяне и с помощью роботизированной формы жизни практически уничтожили людей. Обосновавшись на Луне, остатки человечества готовятся дать отпор захватчикам — биться во имя человечества предстоит высокотехнологичным воинам-андроидам YoRHa.

Страна: Япония
Продолжительность: 00:23:40
Перевод: Дублированный (неофициальный) | Flarrow Films
Роли озвучивали: Татьяна Борзова, Даниил Бледный, Ислам Ганджаев, Анастасия Портная, Юля Марычева, Егор Васильев, Александр Скиданов, Данил Зимин, Вероника Нефедова, Полина Ртищева, Георгий Кармрян и Анна Мосолова.
Файл
Формат: MKV
Кодек: MPEG-4 AVC
Качество: WEB-DL 1080
Видео: 1920х1080, ~ 8 000 kb/s, 23.976, 8 bits
Аудио: AAC LC, 192 kb/s, 2 channels, 48.0 kHz-

MediaInfo

General
Unique ID : 339314481643558498879628111044618198100 (0xFF4597924D8FC8A6C313F5F787939C54)
Complete name : C:FlarrowNieRAutomata.Ver1.1a.S01E01.1080p.D.Flarrow.FilmsNieRAutomata.Ver1.1a.S01E01.mkv
Format : Matroska
Format version : Version 4
File size : 1.37 GiB
Duration : 23 min 40 s
Overall bit rate : 8 294 kb/s
Encoded date : UTC 2023-01-10 12:14:38
Writing application : mkvmerge v32.0.0 ('Astral Progressions') 64-bit
Writing library : libebml v1.3.7 + libmatroska v1.5.0
Video
ID : 1
Format : AVC
Format/Info : Advanced Video Codec
Format profile : High@L4
Format settings : CABAC / 4 Ref Frames
Format settings, CABAC : Yes
Format settings, Reference : 4 frames
Format settings, GOP : N=1
Codec ID : V_MPEG4/ISO/AVC
Duration : 23 min 40 s
Bit rate : 8 000 kb/s
Width : 1 920 pixels
Height : 1 080 pixels
Display aspect ratio : 16:9
Frame rate mode : Constant
Frame rate : 23.976 (24000/1001) FPS
Color space : YUV
Chroma subsampling : 4:2:0
Bit depth : 8 bits
Scan type : Progressive
Bits/(Pixel*Frame) : 0.161
Stream size : 1.32 GiB (96%)
Writing library : x264 core 142
Encoding settings : cabac=1 / ref=4 / deblock=1:1:1 / analyse=0x3:0x113 / me=umh / subme=8 / psy=1 / psy_rd=0.40:0.00 / mixed_ref=1 / me_range=16 / chroma_me=1 / trellis=1 / 8x8dct=1 / cqm=0 / deadzone=21,11 / fast_pskip=1 / chroma_qp_offset=-2 / threads=12 / lookahead_threads=2 / sliced_threads=0 / nr=0 / decimate=1 / interlaced=0 / bluray_compat=0 / constrained_intra=0 / bframes=0 / weightp=2 / keyint=96 / keyint_min=48 / scenecut=40 / intra_refresh=0 / rc_lookahead=48 / rc=2pass / mbtree=1 / bitrate=8000 / ratetol=1.0 / qcomp=0.60 / qpmin=0 / qpmax=69 / qpstep=4 / cplxblur=20.0 / qblur=0.5 / vbv_maxrate=12000 / vbv_bufsize=18000 / nal_hrd=none / filler=0 / ip_ratio=1.40 / aq=1:0.60
Default : Yes
Forced : No
Audio
ID : 2
Format : AAC LC
Format/Info : Advanced Audio Codec Low Complexity
Codec ID : A_AAC-2
Duration : 23 min 40 s
Bit rate : 192 kb/s
Channel(s) : 2 channels
Channel layout : L R
Sampling rate : 48.0 kHz
Frame rate : 46.875 FPS (1024 SPF)
Compression mode : Lossy
Stream size : 32.2 MiB (2%)
Language : Russian
Default : Yes
Forced : No
-

Скриншоты

-Примечание: Релиз без рекламы
[ivtracker.org].t39690.torrent 
 ЗОЛОТАЯ РАЗДАЧА! СКАЧАННОЕ НЕ ЗАСЧИТЫВАЕТСЯ! 
Торрент: Зарегистрирован [ 2023-01-25 04:10 ] · F2C1E22EDC5FF15FA26DF7074479E85171120924

Скачать .torrent

Скачать

13 KB

Статус: проверено · admin · 1 год 5 месяцев назад
Скачан: 0 раз
Размер: 2.38 GB
Поделиться:
 
Похожие темы
[Профиль] [ЛС]
Вернуться к началу
Показать сообщения:    
Ответить на тему

Текущее время: 21-Июл 15:46

Часовой пояс: UTC + 3



Вы не можете начинать темы
Вы не можете отвечать на сообщения
Вы не можете редактировать свои сообщения
Вы не можете удалять свои сообщения
Вы не можете голосовать в опросах
Вы не можете прикреплять файлы к сообщениям
Вы можете скачивать файлы