Чёрная птица / Black Bird [S01] (2022) WEB-DLRip | Пифагор

Reply to topic
DL-List and Torrent activity [Update пиров]
Size:  5.15 GB   |    Registered:  13 days   |    Completed:  0 times
Seeders:  421  [  0 KB/s  ]   Leechers:  106  [  0 KB/s  ]   Show peers in full details
 
   
 
 
Author Message

admin ®

Gender: Male

Longevity: 4 years 10 months

Posts: 20129

Location: Россия

Post 06-Aug-2022 05:00

[Quote]

Чёрная птица / Black Bird
Страна: США
Год выпуска: 2022
Жанр: триллер, драма, криминал
Продолжительность: ~00:57:00 серия
Перевод: Профессиональный (дублированный) | Пифагор
Режиссёр: Михаэль Р. Роскам, Джо Чаппелль, Джим МакКэй
В ролях: Тэрон Эджертон, Пол Уолтер Хаузер, Рэй Лиотта, Грег Киннер, Зепиде Моафи, Каллен Мосс, Робин Малкольм, Роберт Уокер-Бранчад, Джеймс Дюмон, Роберт Диаго Доки, Джо Уильямсон, Уолкер Бэбингтон, Александр Бабара, Сесилия Лил, Рейчел Уитмен, Лейни Стибинг
Описание: Сериал основан на реальных событиях. Сыну полицейского Джеймсу Кину, отбывающему десятилетний срок за продажу наркотиков, предлагают сильно смягчить приговор. Для этого парню необходимо перейти в тюрьму строгого режима, сблизиться с серийным убийцей Ларри Холлом и узнать побольше о преступлениях, в которых тот подозревается. А в идеале — добиться от Холла полного признания. Для Кина это единственный шанс выйти на свободу, но маньяк затевает с ним хитрую психологическую игру.

Качество: WEB-DLRip
Формат: AVI
Видео: XviD, 704x352 (2,000), 23.976 кадров/сек, 1700 Кбит/сек
Аудио Rus: AC3, 48,0 kHz, 2 ch, 192 Кбит/сек | Пифагор
Аудио Eng: AC3, 48,0 kHz, 2 ch, 192 Кбит/сек
Субтитры: Русские (Forced, Full [Apple TV+]), Английские (SDH)
Без рекламы

Список серий

01. Пилотная серия — Pilot
02. Реконструктор — We Are Coming, Father Abraham
03. Всё по зубам — Hand to Mouth
04. Как-её-там — WhatsHerName
05. Где это было — The Place I Lie
06. Ты обещал — You Promised

MediaInfo

Общее
Полное имя : Black.Bird.S01E01.WEB- .[Wentworth_Miller].avi
Формат : AVI
Формат/Информация : Audio Video Interleave
Размер файла : 868 Мбайт
Продолжительность : 57 м. 48 с.
Общий поток : 2 098 Кбит/сек
Программа кодирования : VirtualDubMod 1.5.10.3 | www.virtualdub-fr.org || (build 2550/release)
Видео
Идентификатор : 0
Формат : MPEG-4 Visual
Профиль формата : Advanced Simple@L5
Настройки формата : BVOP1 / Custom Matrix
Параметр BVOP формата : 1
Параметр QPel формата : Нет
Параметр GMC формата : Без точки перехода
Параметр матрицы формата : Выборочная
Идентификатор кодека : XVID
Идентификатор кодека/Подсказка : XviD
Продолжительность : 57 м. 48 с.
Битрейт : 1 700 Кбит/сек
Ширина : 704 пикселя
Высота : 352 пикселя
Соотношение сторон : 2,000
Частота кадров : 23,976 (24000/1001) кадра/сек
Цветовое пространство : YUV
Субдискретизация насыщенности : 4:2:0
Битовая глубина : 8 бит
Тип развёртки : Прогрессивная
Метод сжатия : С потерями
Бит/(Пиксели*Кадры) : 0.286
Размер потока : 703 Мбайт (81%)
Библиотека кодирования : XviD 69
Аудио #1
Идентификатор : 1
Формат : AC-3
Формат/Информация : Audio Coding 3
Коммерческое название : Dolby Digital
Идентификатор кодека : 2000
Продолжительность : 57 м. 48 с.
Вид битрейта : Постоянный
Битрейт : 192 Кбит/сек
Каналы : 2 канала
Channel layout : L R
Частота : 48,0 КГц
Частота кадров : 31,250 кадров/сек (1536 SPF)
Метод сжатия : С потерями
Размер потока : 79,4 Мбайт (9%)
Выравнивание : Разделение по промежуткам
Продолжительность промежутка : 42 мс. (1,00 видеокадр)
Время предзагрузки промежутка : 500 мс.
Service kind : Complete Main
Аудио #2
Идентификатор : 2
Формат : AC-3
Формат/Информация : Audio Coding 3
Коммерческое название : Dolby Digital
Идентификатор кодека : 2000
Продолжительность : 57 м. 48 с.
Вид битрейта : Постоянный
Битрейт : 192 Кбит/сек
Каналы : 2 канала
Channel layout : L R
Частота : 48,0 КГц
Частота кадров : 31,250 кадров/сек (1536 SPF)
Метод сжатия : С потерями
Размер потока : 79,4 Мбайт (9%)
Выравнивание : Разделение по промежуткам
Продолжительность промежутка : 42 мс. (1,00 видеокадр)
Время предзагрузки промежутка : 500 мс.
Service kind : Complete Main

Скриншоты

 GOLD TORRENT! DOWNLOAD TRAFFIC DOES NOT CONSIDER! 
Torrent: Registered [ 2022-08-06 05:03 ]   · A5E07839DB66990BB02A9985881E46F04ADDAF3B

Download .torrent

Download

29 KB

Status: checked
Completed: 0 times
Size: 5.15 GB
Поделиться:
terms.php
[Profile] [PM]
Display posts:    
Reply to topic

Current time is: 19-Aug 17:58

All times are UTC + 3



You cannot post new topics in this forum
You cannot reply to topics in this forum
You cannot edit your posts in this forum
You cannot delete your posts in this forum
You cannot vote in polls in this forum
You cannot attach files in this forum
You can download files in this forum