Удача / Luck (2022) WEB-DL-HEVC 2160p | 4K | HDR | D | Невафильм

Reply to topic
 
Author Message

admin ®

Gender: Male

Longevity: 4 years 10 months

Posts: 20129

Location: Россия

Post 06-Aug-2022 04:55

[Quote]

Информация о фильме
Название: Удача
Оригинальное название: Luck
Год выхода: 2022
Жанр: мультфильм, фэнтези, комедия, приключения, семейный
Режиссер: Пегги Холмс
В ролях: Эва Ноблесада, Саймон Пегг, Джейн Фонда, Вупи Голдберг, Флула Борг, Лил Рел Ховери, Колин О’Донохью, Джон Ратценбергер, Аделин Спун
О фильме:
Сэм Гринфилд — самая невезучая девочка в мире. Внезапно оказавшись в волшебной Стране Удачи, она объединяется с населяющими её существами, чтобы вернуть себе удачу.

Страна: США, Испания
Студия: Apple Original Films, Ilion Animation Studios, Paramount Pictures, Skydance Animation, Skydance Productions
Продолжительность: 01:45:24
Перевод: Профессиональный дублированный | Невафильм
Файл
Кодек: H.265
Качество: WEB-DL 2160p
Видео: MPEG-H HEVC HDR Video, 3840x2076 (1.85:1), 23.976 fps, 24.3 Mb/s, 10 bit
Аудио 1: E-AC3 JOC, 48.0 kHz, 6 ch, 768 kb/s | RUS
Аудио 2: AC3, 48.0 kHz, 6 ch, 640 kb/s | RUS
Аудио 3: E-AC3 JOC, 48.0 kHz, 6 ch, 768 kb/s | RUS - Тифлокомментирование
Аудио 4: E-AC3 JOC, 48.0 kHz, 6 ch, 768 kb/s | ENG
Субтитры: Русские (Forced, full, SDH), украинские (Full), английские (Full, SDH)
Сэмпл |

MI

Общее
Уникальный идентификатор : 219827497617712817313324610274610154208 (0xA5613C6C35FAEB8EACE74CED82788AE0)
Полное имя : Luck.(2022).WEB-DL.2160p.HDR.mkv
Формат : Matroska
Версия формата : Version 4 / Version 2
Размер файла : 20,1 Гбайт
Продолжительность : 1 ч. 45 м.
Общий поток : 27,3 Мбит/сек
Дата кодирования : UTC 2022-08-05 11:18:45
Программа кодирования : mkvmerge v8.3.0 ('Over the Horizon') 64bit
Библиотека кодирования : libebml v1.3.1 + libmatroska v1.4.2
Обложка : Yes
Attachments : Cover.jpg
Видео
Идентификатор : 1
Формат : HEVC
Формат/Информация : High Efficiency Video Coding
Профиль формата : Main 10@L5@High
HDR format : SMPTE ST 2086, HDR10 compatible
Идентификатор кодека : V_MPEGH/ISO/HEVC
Продолжительность : 1 ч. 45 м.
Битрейт : 24,3 Мбит/сек
Ширина : 3 840 пикселей
Высота : 2 076 пикселей
Соотношение сторон : 1,85:1
Режим частоты кадров : Постоянный
Частота кадров : 23,976 кадра/сек
Цветовое пространство : YUV
Субдискретизация насыщенности : 4:2:0 (Type 2)
Битовая глубина : 10 бит
Бит/(Пиксели*Кадры) : 0.127
Размер потока : 17,9 Гбайт (89%)
Default : Да
Forced : Нет
Цветовой диапазон : Limited
Основные цвета : BT.2020
Характеристики трансфера : PQ
Коэффициенты матрицы : BT.2020 non-constant
Mastering display color primaries : Display P3
Mastering display luminance : min: 0.0050 cd/m2, max: 1000 cd/m2
Maximum Content Light Level : 1084 cd/m2
Maximum Frame-Average Light Level : 319 cd/m2
Аудио #1
Идентификатор : 2
Формат : E-AC-3 JOC
Формат/Информация : Enhanced AC-3 with Joint Object Coding
Коммерческое название : Dolby Digital Plus with Dolby Atmos
Идентификатор кодека : A_EAC3
Продолжительность : 1 ч. 45 м.
Вид битрейта : Постоянный
Битрейт : 768 Кбит/сек
Каналы : 6 каналов
Channel layout : L R C LFE Ls Rs
Частота : 48,0 КГц
Частота кадров : 31,250 кадров/сек (1536 SPF)
Метод сжатия : С потерями
Размер потока : 579 Мбайт (3%)
Заголовок : DUB (Nevafilm)
Язык : Russian
Service kind : Complete Main
Default : Да
Forced : Нет
Complexity index : 16
Number of dynamic objects : 15
Bed channel count : 1 канал
Bed channel configuration : LFE
Аудио #2
Идентификатор : 3
Формат : AC-3
Формат/Информация : Audio Coding 3
Коммерческое название : Dolby Digital
Идентификатор кодека : A_AC3
Продолжительность : 1 ч. 45 м.
Вид битрейта : Постоянный
Битрейт : 640 Кбит/сек
Каналы : 6 каналов
Channel layout : L R C LFE Ls Rs
Частота : 48,0 КГц
Частота кадров : 31,250 кадров/сек (1536 SPF)
Метод сжатия : С потерями
Размер потока : 482 Мбайт (2%)
Заголовок : DUB (Nevafilm)
Язык : Russian
Service kind : Complete Main
Default : Нет
Forced : Нет
Аудио #3
Идентификатор : 4
Формат : E-AC-3 JOC
Формат/Информация : Enhanced AC-3 with Joint Object Coding
Коммерческое название : Dolby Digital Plus with Dolby Atmos
Идентификатор кодека : A_EAC3
Продолжительность : 1 ч. 45 м.
Вид битрейта : Постоянный
Битрейт : 768 Кбит/сек
Каналы : 6 каналов
Channel layout : L R C LFE Ls Rs
Частота : 48,0 КГц
Частота кадров : 31,250 кадров/сек (1536 SPF)
Метод сжатия : С потерями
Размер потока : 579 Мбайт (3%)
Заголовок : DUB (Nevafilm) | Audio Deion
Язык : Russian
Service kind : Complete Main
Default : Нет
Forced : Нет
Complexity index : 16
Number of dynamic objects : 15
Bed channel count : 1 канал
Bed channel configuration : LFE
Аудио #4
Идентификатор : 5
Формат : E-AC-3 JOC
Формат/Информация : Enhanced AC-3 with Joint Object Coding
Коммерческое название : Dolby Digital Plus with Dolby Atmos
Идентификатор кодека : A_EAC3
Продолжительность : 1 ч. 45 м.
Вид битрейта : Постоянный
Битрейт : 768 Кбит/сек
Каналы : 6 каналов
Channel layout : L R C LFE Ls Rs
Частота : 48,0 КГц
Частота кадров : 31,250 кадров/сек (1536 SPF)
Метод сжатия : С потерями
Размер потока : 579 Мбайт (3%)
Заголовок : Original
Язык : English
Service kind : Complete Main
Default : Нет
Forced : Нет
Complexity index : 16
Number of dynamic objects : 15
Bed channel count : 1 канал
Bed channel configuration : LFE
Текст #1
Идентификатор : 6
Формат : UTF-8
Идентификатор кодека : S_TEXT/UTF8
Идентификатор кодека/Информация : UTF-8 Plain Text
Продолжительность : 1 ч. 36 м.
Битрейт : 4 бит/сек
Частота кадров : 0,011 кадр/сек
Count of elements : 65
Размер потока : 3,39 Кбайт (0%)
Заголовок : Forced
Язык : Russian
Default : Да
Forced : Нет
Текст #2
Идентификатор : 7
Формат : UTF-8
Идентификатор кодека : S_TEXT/UTF8
Идентификатор кодека/Информация : UTF-8 Plain Text
Продолжительность : 1 ч. 44 м.
Битрейт : 103 бит/сек
Частота кадров : 0,224 кадр/сек
Count of elements : 1401
Размер потока : 78,9 Кбайт (0%)
Заголовок : Full
Язык : Russian
Default : Нет
Forced : Нет
Текст #3
Идентификатор : 8
Формат : UTF-8
Идентификатор кодека : S_TEXT/UTF8
Идентификатор кодека/Информация : UTF-8 Plain Text
Продолжительность : 1 ч. 36 м.
Битрейт : 126 бит/сек
Частота кадров : 0,282 кадр/сек
Count of elements : 1626
Размер потока : 88,7 Кбайт (0%)
Заголовок : SDH
Язык : Russian
Default : Нет
Forced : Нет
Текст #4
Идентификатор : 9
Формат : UTF-8
Идентификатор кодека : S_TEXT/UTF8
Идентификатор кодека/Информация : UTF-8 Plain Text
Продолжительность : 1 ч. 44 м.
Битрейт : 101 бит/сек
Частота кадров : 0,224 кадр/сек
Count of elements : 1404
Размер потока : 77,7 Кбайт (0%)
Заголовок : Full
Язык : Ukrainian
Default : Нет
Forced : Нет
Текст #5
Идентификатор : 10
Формат : UTF-8
Идентификатор кодека : S_TEXT/UTF8
Идентификатор кодека/Информация : UTF-8 Plain Text
Продолжительность : 1 ч. 35 м.
Битрейт : 68 бит/сек
Частота кадров : 0,239 кадр/сек
Count of elements : 1371
Размер потока : 48,0 Кбайт (0%)
Заголовок : Full
Язык : English
Default : Нет
Forced : Нет
Текст #6
Идентификатор : 11
Формат : UTF-8
Идентификатор кодека : S_TEXT/UTF8
Идентификатор кодека/Информация : UTF-8 Plain Text
Продолжительность : 1 ч. 36 м.
Битрейт : 77 бит/сек
Частота кадров : 0,280 кадр/сек
Count of elements : 1616
Размер потока : 54,8 Кбайт (0%)
Заголовок : SDH
Язык : English
Default : Нет
Forced : Нет

Скриншоты

[Profile] [PM]
Display posts:    
Reply to topic

Current time is: 19-Aug 18:22

All times are UTC + 3



You cannot post new topics in this forum
You cannot reply to topics in this forum
You cannot edit your posts in this forum
You cannot delete your posts in this forum
You cannot vote in polls in this forum
You cannot attach files in this forum
You cannot download files in this forum