RRR: Рядом ревёт революция / RRR / Rise Roar Revolt (2022) WEB-DL 1080p | P | Кубик в кубе, The Kitchen Russia

Reply to topic
DL-List and Torrent activity [Update пиров]
Size:  9.17 GB   |    Registered:  20 days   |    Completed:  0 times
Seeders:  135  [  0 KB/s  ]   Leechers:  11  [  0 KB/s  ]   Show peers in full details
 
   
 
 
Author Message

admin ®

Gender: Male

Longevity: 4 years 10 months

Posts: 20129

Location: Россия

Post 30-Jul-2022 05:21

[Quote]

Информация о фильме
Название: RRR: Рядом ревёт революция
Оригинальное название: RRR (Rise Roar Revolt)
Год выхода: 2022
Жанр: Боевик, драма, история
Режиссер: С.С. Раджамули
В ролях: Рам Чаран Теджа, НТР мл., Оливия Моррис, Рэй Стивенсон, Элисон Дуди, Твинкл Шарма, Аджай Девган, Алиа Бхатт, Шрия, Самудира Кани, Чандра Шекхар, Макранд Дешпандэ, Раджив Канакала, Рахул Рамакришна, Эдвард Зонненблик, Варун Будхадев, Спандан Чатурведи, Марк Беннингтон, Ахмарин Анджум, Кирон Арья, Рк Ракеш Боро, Нарендра Сингх Дхами, Р. Бхакти Клейн, Иван Костадинов, Дэниэл О’Кейн, Гурав Пандия
О фильме:
Британская Индия. Рама - преданный полицейский на службе у колониального правительства, способный расправиться с толпой в одиночку, и местные считают его предателем. Бхим - парень из племени гондов, который вынужден отправиться в Дели на поиски похищенной губернатором маленькой соплеменницы. Узнав об этом, губернатор объявляет награду за его поимку, и, чтобы продвинуться по службе, Рама берётся за это задание. Спасая упавшего в реку мальчика, Рама и Бхим становятся друзьями. Они не знают ни настоящих личностей, ни скрытых мотивов друг друга, но это знакомство положит начало большим переменам.

Страна: Индия
Студия: DVV Entertainment
Продолжительность: 03:00:48
Перевод 1: Профессиональный (многоголосый, закадровый) | Кубик в Кубе
Перевод 2: Профессиональный (многоголосый, закадровый) | The Kitchen Russia
Примечание: Без рекламы
Файл
Формат: MKV
Качество: WEB-DL 1080p
Видео: MPEG-4 AVC, 6000 Кбит/с, 1920x1012
Аудио #01: E-AC3, 6 ch, 448 Кбит/с | RUS - Кубик в Кубе
Аудио #02: E-AC3, 6 ch, 448 Кбит/с | RUS - The Kitchen Russia
Аудио #03: E-AC3, 6 ch, 448 Кбит/с | Hindi
Субтитры: Русские (полные), английские (полные)
Семпл

Скриншоты

MI

Общее
Уникальный идентификатор : 205793903986626811792703164017478703857 (0x9AD276D634A8EE22D0948053ECE79AF1)
Полное имя : D:RRR.(Rise.Roar.Revolt).2022.WEB-DL.1080p.mkv
Формат : Matroska
Версия формата : Version 4
Размер файла : 9,17 Гбайт
Продолжительность : 3 ч. 0 м.
Общий поток : 7 262 Кбит/сек
Название фильма : RRR.(Rise.Roar.Revolt).2022.WEB-DL.1080p
Дата кодирования : UTC 2022-07-29 19:04:01
Программа кодирования : mkvmerge v68.0.0 ('The Curtain') 64-bit
Библиотека кодирования : libebml v1.4.2 + libmatroska v1.6.4
Attachments : poster.jpg
Видео
Идентификатор : 1
Формат : AVC
Формат/Информация : Advanced Video Codec
Профиль формата : High@L4
Настройки формата : CABAC / 4 Ref Frames
Параметр CABAC формата : Да
Параметр RefFrames формата : 4 кадра
Идентификатор кодека : V_MPEG4/ISO/AVC
Продолжительность : 3 ч. 0 м.
Битрейт : 6 000 Кбит/сек
Ширина : 1 920 пикселей
Высота : 1 012 пикселей
Соотношение сторон : 1,897
Режим частоты кадров : Постоянный
Частота кадров : 24,000 кадра/сек
Цветовое пространство : YUV
Субдискретизация насыщенности : 4:2:0
Битовая глубина : 8 бит
Тип развёртки : Прогрессивная
Бит/(Пиксели*Кадры) : 0.129
Размер потока : 7,47 Гбайт (81%)
Библиотека кодирования : x264 core 157
Настройки программы : cabac=1 / ref=4 / deblock=1:0:0 / analyse=0x3:0x133 / me=umh / subme=10 / psy=1 / psy_rd=1.00:0.00 / mixed_ref=1 / me_range=24 / chroma_me=1 / trellis=2 / 8x8dct=1 / cqm=0 / deadzone=21,11 / fast_pskip=1 / chroma_qp_offset=-2 / threads=32 / lookahead_threads=5 / sliced_threads=0 / nr=0 / decimate=1 / interlaced=0 / bluray_compat=0 / stitchable=1 / constrained_intra=0 / bframes=8 / b_pyramid=2 / b_adapt=2 / b_bias=0 / direct=3 / weightb=1 / open_gop=0 / weightp=2 / keyint=250 / keyint_min=24 / scenecut=40 / intra_refresh=0 / rc_lookahead=60 / rc=2pass / mbtree=1 / bitrate=6000 / ratetol=1.0 / qcomp=0.60 / qpmin=0 / qpmax=69 / qpstep=4 / cplxblur=20.0 / qblur=0.5 / vbv_maxrate=6600 / vbv_bufsize=12000 / nal_hrd=none / filler=0 / ip_ratio=1.40 / aq=1:1.00
Default : Да
Forced : Нет
Аудио #1
Идентификатор : 2
Формат : E-AC-3
Формат/Информация : Enhanced AC-3
Коммерческое название : Dolby Digital Plus
Идентификатор кодека : A_EAC3
Продолжительность : 3 ч. 0 м.
Вид битрейта : Постоянный
Битрейт : 448 Кбит/сек
Каналы : 6 каналов
Channel layout : L R C LFE Ls Rs
Частота : 48,0 КГц
Частота кадров : 31,250 кадров/сек (1536 SPF)
Метод сжатия : С потерями
Размер потока : 579 Мбайт (6%)
Заголовок : [Kubik v Kube | E-AC3 Audio]
Язык : Russian
Service kind : Complete Main
Default : Да
Forced : Нет
Аудио #2
Идентификатор : 3
Формат : E-AC-3
Формат/Информация : Enhanced AC-3
Коммерческое название : Dolby Digital Plus
Идентификатор кодека : A_EAC3
Продолжительность : 3 ч. 0 м.
Вид битрейта : Постоянный
Битрейт : 448 Кбит/сек
Каналы : 6 каналов
Channel layout : L R C LFE Ls Rs
Частота : 48,0 КГц
Частота кадров : 31,250 кадров/сек (1536 SPF)
Метод сжатия : С потерями
Размер потока : 579 Мбайт (6%)
Заголовок : [The Kitchen Russia | E-AC3 Audio]
Язык : Russian
Service kind : Complete Main
Default : Нет
Forced : Нет
Аудио #3
Идентификатор : 4
Формат : E-AC-3
Формат/Информация : Enhanced AC-3
Коммерческое название : Dolby Digital Plus
Идентификатор кодека : A_EAC3
Продолжительность : 3 ч. 0 м.
Вид битрейта : Постоянный
Битрейт : 448 Кбит/сек
Каналы : 6 каналов
Channel layout : L R C LFE Ls Rs
Частота : 48,0 КГц
Частота кадров : 31,250 кадров/сек (1536 SPF)
Метод сжатия : С потерями
Размер потока : 579 Мбайт (6%)
Заголовок : [Original | E-AC3 Audio]
Язык : Hindi
Service kind : Complete Main
Default : Нет
Forced : Нет
Текст #1
Идентификатор : 5
Формат : UTF-8
Идентификатор кодека : S_TEXT/UTF8
Идентификатор кодека/Информация : UTF-8 Plain Text
Продолжительность : 2 ч. 56 м.
Битрейт : 52 бит/сек
Count of elements : 1444
Размер потока : 67,6 Кбайт (0%)
Заголовок : [Full]
Язык : Russian
Default : Нет
Forced : Нет
Текст #2
Идентификатор : 6
Формат : UTF-8
Идентификатор кодека : S_TEXT/UTF8
Идентификатор кодека/Информация : UTF-8 Plain Text
Продолжительность : 2 ч. 56 м.
Битрейт : 35 бит/сек
Count of elements : 1447
Размер потока : 46,4 Кбайт (0%)
Заголовок : [Full]
Язык : English
Default : Нет
Forced : Нет
 GOLD TORRENT! DOWNLOAD TRAFFIC DOES NOT CONSIDER! 
Torrent: Registered [ 2022-07-30 05:21 ]   · 3FA27B3F79390C50629391AF399BFB329E8F50CE

Download .torrent

Download

24 KB

Status: checked
Completed: 0 times
Size: 9.17 GB
Поделиться:
terms.php
[Profile] [PM]
Display posts:    
Reply to topic

Current time is: 19-Aug 16:43

All times are UTC + 3



You cannot post new topics in this forum
You cannot reply to topics in this forum
You cannot edit your posts in this forum
You cannot delete your posts in this forum
You cannot vote in polls in this forum
You cannot attach files in this forum
You can download files in this forum