David Gilmour: Remember That Night Disc 2 (2007) BDRip 1080p

Reply to topic
DL-List and Torrent activity [Update пиров]
Size:  8.68 GB   |    Registered:  27 days   |    Completed:  0 times
Seeders:  8  [  0 KB/s  ]   Leechers:  1  [  0 KB/s  ]   Show peers in full details
 
   
 
 
Author Message

admin ®

Gender: Male

Longevity: 4 years 10 months

Posts: 20129

Location: Россия

Post 22-Jul-2022 23:16

[Quote]

Название: David Gilmour: Remember That Night Disc 2
Исполнители: David Gilmour, Richard Wright, Phil Manzanera, Jon Carin, Guy Pratt, Steve DiStanislao, Dick Parry
Год выпуска: 2007
Жанр: Rock
Продолжительность: 01:33:06
Описание: Первый диск двухдискового Blu-Ray издания концерта Дэвида Гилмора "Remember That Night"
Содержит бонусы - тринадцать дополнительных концертных треков, видеоклипы.

Треклист:

01. Wot's... Uh The Deal
02. Dominoes
03. Wearing The Inside Out (featuring Richard Wright)
04. Arnold Layne (featuring Richard Wright)
05. Comfortably Numb (featuring Richard Wright)
06. Dark Globe
07. Astronomy Domine
08. This Heaven
09. Echoes
10. On An Island
11. The Blue
12. Take A Breath
13. High Hopes
14. On An Island (Music Video)
15. Smile (Music Video)
16. Island Jam 2007 (Music Video)
Качество: BDRip 1080p
Формат: MKV
Видео кодек: H264
Аудио кодек: AC3
Видео: MPEG4 Video (H264), 1920x1080, 29.97fps, 12.7 Mbps
Аудио: Dolby AC3, 48000 Hz, 2ch, 640 kbps

MediaInfo:

General
Unique ID : 213707815340150274982701497030404520550 (0xA0C6A0CA97B2D42F9DD6A091B318BA66)
Complete name : F:Torrent 22007.David.Gilmour.2.renta23.mkv
Format : Matroska
Format version : Version 4 / Version 2
File size : 8.68 GiB
Duration : 1h 33mn
Overall bit rate : 13.3 Mbps
Movie name : 2007 David Gilmour Remember That Night 2 / renta23
Encoded date : UTC 2016-05-14 20:07:57
Writing application : mkvmerge v8.3.0 ('Over the Horizon') 64bit
Writing library : libebml v1.3.1 + libmatroska v1.4.2
Video
ID : 1
Format : AVC
Format/Info : Advanced Video Codec
Format profile : High@L4.1
Format settings, CABAC : Yes
Format settings, ReFrames : 4 frames
Codec ID : V_MPEG4/ISO/AVC
Duration : 1h 33mn
Bit rate : 12.7 Mbps
Width : 1 920 pixels
Height : 1 080 pixels
Display aspect ratio : 16:9
Frame rate mode : Constant
Frame rate : 29.970 (30000/1001) fps
Color space : YUV
Chroma subsampling : 4:2:0
Bit depth : 8 bits
Scan type : Progressive
Bits/(Pixel*Frame) : 0.204
Stream size : 8.26 GiB (95%)
Title : 2007 David Gilmour Remember That Night 2
Writing library : x264 core 146 r2538 121396c
Encoding settings : cabac=1 / ref=4 / deblock=1:-1:-1 / analyse=0x3:0x133 / me=umh / subme=11 / psy=1 / psy_rd=1.07:0.23 / mixed_ref=1 / me_range=24 / chroma_me=1 / trellis=2 / 8x8dct=1 / cqm=0 / deadzone=21,11 / fast_pskip=0 / chroma_qp_offset=-3 / threads=12 / lookahead_threads=3 / sliced_threads=0 / nr=0 / decimate=1 / interlaced=0 / bluray_compat=0 / constrained_intra=0 / bframes=10 / b_pyramid=2 / b_adapt=2 / b_bias=0 / direct=3 / weightb=1 / open_gop=0 / weightp=2 / keyint=250 / keyint_min=25 / scenecut=40 / intra_refresh=0 / rc=2pass / mbtree=0 / bitrate=12700 / ratetol=1.0 / qcomp=0.60 / qpmin=0 / qpmax=69 / qpstep=4 / cplxblur=20.0 / qblur=0.5 / ip_ratio=1.40 / pb_ratio=1.30 / aq=2:1.00
Language : English
Default : Yes
Forced : No
Audio
ID : 2
Format : AC-3
Format/Info : Audio Coding 3
Mode extension : CM (complete main)
Format settings, Endianness : Big
Codec ID : A_AC3
Duration : 1h 33mn
Bit rate mode : Constant
Bit rate : 640 Kbps
Channel(s) : 2 channels
Channel positions : Front: L R
Sampling rate : 48.0 KHz
Frame rate : 31.250 fps (1536 spf)
Compression mode : Lossy
Stream size : 426 MiB (5%)
Title : AC3 Stereo
Language : English
Default : Yes
Forced : No
Menu
00:00:00.000 : en:Wot's... Uh The Deal
00:05:15.000 : en:Dominoes
00:10:03.000 : en:Wearing The Inside Out
00:17:28.000 : en:Arnold Layne
00:20:48.000 : en:Comfortably Numb
00:29:02.000 : en:Dark Globe
00:31:19.000 : en:Astronomy Domine
00:36:15.000 : en:This Heaven
00:40:56.000 : en:Echoes
00:47:47.000 : en:On An Island
00:54:58.000 : en:The Blue
01:01:15.000 : en:Take A Breath
01:07:28.000 : en:High Hopes
01:17:01.000 : en:On An Island (Music Video)
01:23:51.000 : en:Smile (Music Video)
01:27:47.000 : en:Island Jam 2007

Скриншоты:


 GOLD TORRENT! DOWNLOAD TRAFFIC DOES NOT CONSIDER! 
Torrent: Registered [ 2022-07-22 23:16 ]   · FA4E8F941FF798AC38D7C1FDA41E1EDDDF90A995

Download .torrent

Download

44 KB

Status: checked
Completed: 0 times
Size: 8.68 GB
Поделиться:
terms.php
[Profile] [PM]
Display posts:    
Reply to topic

Current time is: 19-Aug 18:24

All times are UTC + 3



You cannot post new topics in this forum
You cannot reply to topics in this forum
You cannot edit your posts in this forum
You cannot delete your posts in this forum
You cannot vote in polls in this forum
You cannot attach files in this forum
You can download files in this forum