Dire Straits - Money For Nothing [24-bit Hi-Res, Remastered] (1988/2022) FLAC

Reply to topic
DL-List and Torrent activity [Update пиров]
Size:  2.53 GB   |    Registered:  6 days   |    Completed:  0 times
Seeders:  1  [  0 KB/s  ]   Leechers:  1  [  0 KB/s  ]   Show peers in full details
 
   
 
 
Author Message

admin ®

Gender: Male

Longevity: 4 years 9 months

Posts: 18801

Location: Россия

Post 19-Jun-2022 18:26

[Quote]

Название: Money For Nothing
Исполнитель: Dire Straits
Год: 1988/2022
Жанр: Rock
Страна: United Kingdom
Продолжительность: 01:07:52
Формат/Кодек: FLAC
Тип рипа: Tracks
Битрейт аудио: Lossless
Разрядность: 24 Bit/192 kHz
Носитель: WEB

Трек-лист

01. Sultans Of Swing
02. Down To The Waterline
03. Portobello Belle (Live / Alternate Version)
04. Twisting By The Pool (Remix)
05. Tunnel Of Love
06. Romeo And Juliet
07. Where Do You Think You're Going? (Alternative Mix)
08. Walk Of Life
09. Private Investigations
10. Telegraph Road (Live At Hammersmith Odeon, London / 1983 / Remix)
11. Money For Nothing (Single Edit)
12. Brothers In Arms (Edit)

DR
foobar2000 1.6.8 / Dynamic Range Meter 1.1.1
--------------------------------------------------------------------------------
Analyzed: Dire Straits / Money For Nothing
--------------------------------------------------------------------------------
DR Peak RMS Duration Track
--------------------------------------------------------------------------------
DR7 -0.20 dB -8.49 dB 5:56 01-Sultans Of Swing (Remastered 2022)
DR8 -0.20 dB -10.49 dB 4:02 02-Down To The Waterline (Remastered 2022)
DR8 -0.20 dB -11.35 dB 4:24 03-Portobello Belle (Live / Alternate Version / Remastered 2022)
DR8 -0.20 dB -9.41 dB 3:33 04-Twisting By The Pool (Remix / Remastered 2022)
DR8 -0.20 dB -10.48 dB 8:12 05-Tunnel Of Love (Remastered 2022)
DR8 -0.20 dB -12.88 dB 5:59 06-Romeo And Juliet (Remastered 2022)
DR8 -0.20 dB -11.18 dB 3:34 07-Where Do You Think You're Going? (Alternative Mix / Remastered 2022)
DR7 -0.20 dB -9.10 dB 4:07 08-Walk Of Life (Remastered 2022)
DR10 -0.20 dB -15.01 dB 5:57 09-Private Investigations (Remastered 2022)
DR8 -0.20 dB -12.58 dB 13:08 10-Telegraph Road (Live At Hammersmith Odeon, London / 1983 / Remix / Remastered 2022)
DR7 -0.20 dB -9.78 dB 4:08 11-Money For Nothing (Single Edit / Remastered 2022)
DR7 -0.20 dB -10.37 dB 4:59 12-Brothers In Arms (Edit / Remastered 2022)
--------------------------------------------------------------------------------
Number of tracks: 12
Official DR value: DR8
Samplerate: 192000 Hz
Channels: 2
Bits per sample: 24
Bitrate: 4119 kbps
Codec: FLAC
================================================================================
 GOLD TORRENT! DOWNLOAD TRAFFIC DOES NOT CONSIDER! 
Torrent: Registered [ 2022-06-19 18:26 ]   · 8D53513A553FD2081D949129F777464E0A5F75C3

Download .torrent

Download

14 KB

Status: checked
Completed: 0 times
Size: 2.53 GB
Поделиться:
terms.php
[Profile] [PM]
Display posts:    
Reply to topic

Current time is: 26-Jun 11:01

All times are UTC + 3



You cannot post new topics in this forum
You cannot reply to topics in this forum
You cannot edit your posts in this forum
You cannot delete your posts in this forum
You cannot vote in polls in this forum
You cannot attach files in this forum
You can download files in this forum