Оби-Ван Кеноби / Obi-Wan Kenobi [01x01-04 из 06] (2022) WEB-DL 1080p | LostFilm

Reply to topic
DL-List and Torrent activity [Update пиров]
Size:  9.43 GB   |    Registered:  15 days   |    Completed:  0 times
Seeders:  4  [  0 KB/s  ]   Leechers:  2  [  0 KB/s  ]   Show peers in full details
 
   
 
 
Author Message

admin ®

Gender: Male

Longevity: 4 years 9 months

Posts: 18801

Location: Россия

Post 11-Jun-2022 03:51

[Quote]

Информация о фильме
Название: Оби-Ван Кеноби
Оригинальное название: Obi-Wan Kenobi
Год выхода: 2022
Жанр: фантастика, боевик, приключения
Режиссер: Дебора Чоу
В ролях: Хейден Кристенсен, Руперт Френд, Юэн Макгрегор, Джоэл Эдгертон, Майя Эрскин, Кумэйл Нанджиани, Моусес Ингрэм, Бонни Пессе, Бенни Сэфди, О’Ши Джексон мл.
О фильме: «Оби-Ван Кеноби» — долгожданное не только для зрителей, но и для самих актеров Юэна МакГрегора и Хейдена Кристенсена возвращение мастера-джедая и его погрузившегося во тьму ученика. События шоу разворачиваются спустя десять лет после их дуэли на Мустафаре и превращения подающего надежды Энакина Скайуокера в зловещего ситха Дарта Вейдера. Сериал расскажет о том, как Оби-Ван принял собственные ошибки и попытался правильно вырастить сына Энакина — Люка Скайуокера. «Оби-Ван» пронизан атмосферой нависшей над галактикой тирании, но все равно отличается коронными для саги оптимизмом и чувством надежды. Заглавную тему для сериала написал оскароносный композитор Джон Уильямс.
Десять лет прошло с тех пор, как Владыка Ситх захватил власть в Империи, орден рыцарей-джедаев был практически полностью истреблен, а Оби-Ван Кеноби (Юэн МакГрегор) пустился в бега. Теперь он скрывается в пещерах Татуина, не использует Силу и пытается не попасться Третьей сестре (Моусес Ингрэм), которая в составе Инквизитория охотится за оставшимися в живых джедаями. Издалека Кеноби приглядывает за сыном Дарта Вейдера (Хейден Кристенсен) — сорванцом Люком, которого воспитывают дядя Оуэн (Джоэл Эдгертон) и тетя Беру (Бонни Пессе). Так бы Оби-Ван и вел жизнь раскаивающегося и раздираемого чувством вины отшельника, если бы однажды к нему не заявился сам сенатор Бейл Органа (Джимми Смитс). Он напоминает, что Кеноби дал клятву умирающей Падме защищать не только Люка, но и его сестру Лею, которая была похищена. Придется Оби-Вану простить себя, вновь взяться за световой меч и выстоять в новой встрече со своим некогда верным падаваном и напарником, а теперь могущественным и безжалостным Дартом Вейдером.

Страна: США
Продолжительность: ~00:52:00 серия
Перевод: Профессиональный (многоголосый, закадровый) LostFilm
Файл
Качество: WEB-DL 1080p
Формат: Matroska
Видео: 1920x1080 at 24.000 fps, MPEG-4 AVC, ~6700 kbps avg
Аудио#1: Russian: 48 kHz, AC3, 3/2 (L,C,R,l,r) + LFE ch, ~640 kbps avg |Многоголосый, закадровый, LostFilm|
Аудио#2: English: 48 kHz, E-AC3, 3/2 (L,C,R,l,r) + LFE ch, ~768 kbps avg
Субтитры: Russian (Forced, Full |Где тексты, Лебовски?|), English (SDH)
***Примечание: Без рекламы

Скриншоты

MediaInfo

Общее
Уникальный идентификатор : 72977514091423584599935251347960383655 (0x36E6F53D3B24F83779A3A82FD9DE48A7)
Полное имя : Obi-Wan.Kenobi.S01E01.mkv
Формат : Matroska
Версия формата : Version 4
Размер файла : 2,97 Гбайт
Продолжительность : 52 м. 28 с.
Режим общего битрейта : Переменный
Общий поток : 8 090 Кбит/сек
Дата кодирования : UTC 2022-05-30 17:09:46
Программа кодирования : mkvmerge v51.0.0 ('I Wish') 64-bit
Библиотека кодирования : libebml v1.4.0 + libmatroska v1.6.2
Видео
Идентификатор : 1
Формат : AVC
Формат/Информация : Advanced Video Codec
Профиль формата : High@L4
Настройки формата : CABAC / 4 Ref Frames
Параметр CABAC формата : Да
Параметр RefFrames формата : 4 кадра
Идентификатор кодека : V_MPEG4/ISO/AVC
Продолжительность : 52 м. 28 с.
Вид битрейта : Переменный
Битрейт : 6 679 Кбит/сек
Максимальный битрейт : 12,7 Мбит/сек
Ширина : 1 920 пикселей
Высота : 1 080 пикселей
Соотношение сторон : 16:9
Режим частоты кадров : Постоянный
Частота кадров : 24,000 кадра/сек
Цветовое пространство : YUV
Субдискретизация насыщенности : 4:2:0
Битовая глубина : 8 бит
Тип развёртки : Прогрессивная
Бит/(Пиксели*Кадры) : 0.134
Размер потока : 2,45 Гбайт (83%)
Default : Да
Forced : Нет
Цветовой диапазон : Limited
Основные цвета : BT.709
Характеристики трансфера : BT.709
Коэффициенты матрицы : BT.709
Аудио #1
Идентификатор : 2
Формат : AC-3
Формат/Информация : Audio Coding 3
Коммерческое название : Dolby Digital
Идентификатор кодека : A_AC3
Продолжительность : 52 м. 28 с.
Вид битрейта : Постоянный
Битрейт : 640 Кбит/сек
Каналы : 6 каналов
Channel layout : L R C LFE Ls Rs
Частота : 48,0 КГц
Частота кадров : 31,250 кадров/сек (1536 SPF)
Метод сжатия : С потерями
Размер потока : 240 Мбайт (8%)
Язык : Russian
Service kind : Complete Main
Default : Да
Forced : Нет
Аудио #2
Идентификатор : 3
Формат : E-AC-3 JOC
Формат/Информация : Enhanced AC-3 with Joint Object Coding
Коммерческое название : Dolby Digital Plus with Dolby Atmos
Идентификатор кодека : A_EAC3
Продолжительность : 52 м. 28 с.
Вид битрейта : Постоянный
Битрейт : 768 Кбит/сек
Каналы : 6 каналов
Channel layout : L R C LFE Ls Rs
Частота : 48,0 КГц
Частота кадров : 31,250 кадров/сек (1536 SPF)
Метод сжатия : С потерями
Размер потока : 288 Мбайт (9%)
Язык : English
Service kind : Complete Main
Default : Нет
Forced : Нет
Complexity index : 16
Number of dynamic objects : 15
Bed channel count : 1 канал
Bed channel configuration : LFE
Текст #1
Идентификатор : 4
Формат : UTF-8
Идентификатор кодека : S_TEXT/UTF8
Идентификатор кодека/Информация : UTF-8 Plain Text
Продолжительность : 48 м. 46 с.
Битрейт : 2 бит/сек
Count of elements : 24
Размер потока : 1,04 Кбайт (0%)
Заголовок : Forced
Язык : Russian
Default : Да
Forced : Нет
Текст #2
Идентификатор : 5
Формат : UTF-8
Идентификатор кодека : S_TEXT/UTF8
Идентификатор кодека/Информация : UTF-8 Plain Text
Продолжительность : 48 м. 47 с.
Битрейт : 62 бит/сек
Count of elements : 501
Размер потока : 22,4 Кбайт (0%)
Язык : Russian
Default : Нет
Forced : Нет
Текст #3
Идентификатор : 6
Формат : UTF-8
Идентификатор кодека : S_TEXT/UTF8
Идентификатор кодека/Информация : UTF-8 Plain Text
Продолжительность : 47 м. 44 с.
Битрейт : 36 бит/сек
Count of elements : 476
Размер потока : 12,7 Кбайт (0%)
Язык : English
Default : Нет
Forced : Нет
Текст #4
Идентификатор : 7
Формат : UTF-8
Идентификатор кодека : S_TEXT/UTF8
Идентификатор кодека/Информация : UTF-8 Plain Text
Продолжительность : 48 м. 23 с.
Битрейт : 45 бит/сек
Count of elements : 619
Размер потока : 16,1 Кбайт (0%)
Заголовок : SDH
Язык : English
Default : Нет
Forced : Нет
Меню
00:00:04.292 : en:Recap
00:04:06.417 : en:End of Recap
00:52:30.167 : en:Credits

Раздача ведется путем добавления новых серий

Когда раздача ведётся путём добавления новых серий, при каждом добавлении создётся новый торрент. Чтобы начать докачку новой серии, пользователям необходимо сделать следующее:
(1) остановить скачивание,
(2) удалить старый торрент у себя из клиента (старые серии удалять не надо),
(3) скачать новый торрент и запустить его у себя в клиенте вместо старого, при этом указать клиенту путь в старую папку, куда и должно происходить скачивание новых серий.
Ваш клиент при этом должен произвести хеширование (проверку) старой папки (если не производит сам - помогите ему сделать это), и будет докачивать только те серии, которых у вас ещё нет. Старые серии при этом не удаляются, а продолжают раздаваться!
Eсли вы уже удалили старые серии, то предотвратить повторную закачку старых серий можно, отжав галочку в соответствующих местах при запуске нового торрента. По возможности, желательно не удалять старые серии как можно дольше, чтобы релизер не столько продолжал раздавать старые серии, а смог сконцентрироваться на новых.
 GOLD TORRENT! DOWNLOAD TRAFFIC DOES NOT CONSIDER! 
Torrent: Registered [ 2022-06-11 03:51 ]   · 2DFAA2A4070021373A8D4E0E089377A6E982C073

Download .torrent

Download

48 KB

Status: checked
Completed: 0 times
Size: 9.43 GB
Поделиться:
terms.php
[Profile] [PM]
Display posts:    
Reply to topic

Current time is: 26-Jun 11:35

All times are UTC + 3



You cannot post new topics in this forum
You cannot reply to topics in this forum
You cannot edit your posts in this forum
You cannot delete your posts in this forum
You cannot vote in polls in this forum
You cannot attach files in this forum
You can download files in this forum