Кипелов: Концерт с симфоническим оркестром (2020) BDRip-HEVC 1080p от RIPS CLUB

Reply to topic
DL-List and Torrent activity [Update пиров]
Size:  14.85 GB   |    Registered:  17 days   |    Completed:  0 times
Seeders:  38  [  0 KB/s  ]   Leechers:  3  [  0 KB/s  ]   Show peers in full details
 
   
 
 
Author Message

admin ®

Gender: Male

Longevity: 4 years 9 months

Posts: 18801

Location: Россия

Post 09-Jun-2022 04:01

[Quote]


Название: Кипелов: Концерт с симфоническим оркестром
Год производства: 2020
Производство: Россия
Жанр: Heavy Metal, Symphonic
Режиссёр: Александр Маков
В концерте принимали участие: Валерий Кипелов - вокал, Вячеслав Молчанов - гитара, Андрей Голованов - гитара, Алексей Харьков - бас-гитара, Александр Манякин - барабаны, симфонический оркестр и хор «Русская Филармония», дирижёр – Вадим Кузьминский
О фильме: Группа Кипелов представляет вашему вниманию "Концерт с симфоническим оркестром", который прошел в Москве в марте 2020 года в Crocus City Hall. Это шоу, которое прошло с аншлагом, стало концом большого тура по 2019-2020. Всё действие снималось на 21 видеокамеру и записывалось для последующего микширования звука, как в стерео, так и в многоканальном окружающем режиме. Таким образом, все посетившие концерты "симфонического" тура смогут в очередной раз окунуться в его уникальную атмосферу; те, кто этого не сделал, откроют группу Кипелов с нового ракурса. Концерт записан при участии симфонического оркестра и хора "Русская филармония".
13 марта 2020 года в стенах Crocus City Hall при полном аншлаге состоялся "Концерт с симфоническим оркестром", ставший завершением большого тура 2019-2020 годов. Помимо участников группы "Кипелов", на сцене в этот вечер присутствовало более 90 музыкантов оркестра "Русская Филармония" во главе с дирижёром Вадимом Кузьминским. Запись звука была произведена на 120 независимых каналов. Сведение осуществлялось на легендарной студии "Finnvox" (Финляндия).

Продолжительность: 02:18:10
Качество: BDRip-HEVC 1080p
Кодек: HEVC (x265)
Видео: 1920x1080 (16:9), 8824 Кбит/сек, HEVC (Main10@L.4.1@High) 10 бит
Звук:
Аудио1: DTS-HD MA, 6 ch, 5024 Kbps - Русский
Аудио2: PCM, 2 ch, 1536 Kbps - Русский
Субтитры: отсутствуют
Навигация по главам: Есть

Лог (x265 info)

x265 [info]: frame I: 866, Avg QP:16.88 kb/s: 23480.22
x265 [info]: frame P: 43861, Avg QP:18.28 kb/s: 16013.35
x265 [info]: frame B: 162539, Avg QP:20.76 kb/s: 6804.91
x265 [info]: Weighted P-Frames: Y:18.0% UV:15.5%
x265 [info]: Weighted B-Frames: Y:17.8% UV:13.2%
x265 [info]: consecutive B-frames: 1.3% 2.3% 6.2% 48.7% 14.3% 21.9% 2.9% 1.7% 0.4% 0.2% 0.2%
x265 [info]: encoded 207266 frames in 177806.79s (1.17 fps), 8823.25 kb/s, Avg QP:20.22

Mediainfo

Общее
Уникальный идентификатор : 338718450038024011577429241140342213176 (0xFED2CCF1CAF8CD51B3210939DE58CA38)
Полное имя : .Кипелов.Концерт.с.симфоническим.оркестром.2020.BDRip-HEVC.1080p.mkv
Формат : Matroska
Версия формата : Version 4
Размер файла : 14,9 Гбайт
Продолжительность : 2 ч. 18 м.
Режим общего битрейта : Переменный
Общий поток : 15,4 Мбит/сек
Название фильма : Кипелов.Концерт.с.симфоническим.оркестром.2020.BDRip-HEVC.1080p
Дата кодирования : UTC 2022-06-08 13:07:55
Программа кодирования : mkvmerge v68.0.0 ('The Curtain') 64-bit
Библиотека кодирования : libebml v1.4.2 + libmatroska v1.6.4
Видео
Идентификатор : 1
Формат : HEVC
Формат/Информация : High Efficiency Video Coding
Профиль формата : Main 10@L4.1@High
Идентификатор кодека : V_MPEGH/ISO/HEVC
Продолжительность : 2 ч. 18 м.
Битрейт : 8 824 Кбит/сек
Ширина : 1 920 пикселей
Высота : 1 080 пикселей
Соотношение сторон : 16:9
Режим частоты кадров : Постоянный
Частота кадров : 25,000 кадров/сек
Цветовое пространство : YUV
Субдискретизация насыщенности : 4:2:0
Битовая глубина : 10 бит
Бит/(Пиксели*Кадры) : 0.170
Размер потока : 8,52 Гбайт (57%)
Заголовок : Кипелов. Концерт с симфоническим оркестром / Rip by OldGamer
Библиотека кодирования : x265 3.5+35-e3713124d:[Windows][GCC 11.2.0][64 bit] 10bit
Настройки программы : cpuid=1111039 / frame-threads=3 / numa-pools=8 / wpp / no-pmode / no-pme / no-psnr / no-ssim / log-level=2 / input-csp=1 / input-res=1920x1080 / interlace=0 / total-frames=207266 / level-idc=41 / high-tier=1 / uhd-bd=0 / ref=5 / no-allow-non-conformance / no-repeat-headers / annexb / no-aud / no-eob / no-eos / no-hrd / info / hash=0 / no-temporal-layers / open-gop / min-keyint=23 / keyint=240 / gop-lookahead=0 / bframes=10 / b-adapt=2 / b-pyramid / bframe-bias=0 / rc-lookahead=40 / lookahead-slices=0 / scenecut=40 / no-hist-scenecut / radl=0 / no-splice / no-intra-refresh / ctu=32 / min-cu-size=8 / rect / amp / max-tu-size=32 / tu-inter-depth=4 / tu-intra-depth=4 / limit-tu=1 / rdoq-level=2 / dynamic-rd=0.00 / no-ssim-rd / signhide / no-tskip / nr-intra=0 / nr-inter=0 / no-constrained-intra / no-strong-intra-smoothing / max-merge=5 / limit-refs=3 / no-limit-modes / me=3 / subme=7 / merange=57 / temporal-mvp / no-frame-dup / no-hme / weightp / weightb / no-analyze-src-pics / deblock=-2:-2 / no-sao / no-sao-non-deblock / rd=6 / selective-sao=0 / no-early-skip / no-rskip / no-fast-intra / no-tskip-fast / no-cu-lossless / b-intra / no-splitrd-skip / rdpenalty=0 / psy-rd=2.00 / psy-rdoq=1.00 / no-rd-refine / no-lossless / cbqpoffs=0 / crqpoffs=0 / rc=crf / crf=20.2 / qcomp=0.67 / qpstep=4 / stats-write=0 / stats-read=0 / vbv-maxrate=50000 / vbv-bufsize=50000 / vbv-init=0.9 / min-vbv-fullness=50.0 / max-vbv-fullness=80.0 / crf-max=0.0 / crf-min=0.0 / ipratio=1.40 / pbratio=1.30 / aq-mode=1 / aq-strength=1.00 / no-cutree / zone-count=1 / zones: / start-frame=206908 / end-frame=207266 / qp=36 / no-strict-cbr / qg-size=32 / no-rc-grain / qpmax=69 / qpmin=0 / no-const-vbv / sar=1 / overscan=0 / videoformat=5 / range=0 / colorprim=2 / transfer=2 / colormatrix=2 / chromaloc=0 / display-window=0 / cll=0,0 / min-luma=0 / max-luma=1023 / log2-max-poc-lsb=8 / vui-timing-info / vui-hrd-info / slices=1 / no-opt-qp-pps / no-opt-ref-list-length-pps / no-multi-pass-opt-rps / scenecut-bias=0.00 / hist-threshold=0.03 / no-opt-cu-delta-qp / no-aq-motion / no-hdr10 / no-hdr10-opt / no-dhdr10-opt / no-idr-recovery-sei / analysis-reuse-level=0 / analysis-save-reuse-level=0 / analysis-load-reuse-level=0 / scale-factor=0 / refine-intra=0 / refine-inter=0 / refine-mv=1 / refine-ctu-distortion=0 / no-limit-sao / ctu-info=0 / no-lowpass-dct / refine-analysis-type=0 / copy-pic=1 / max-ausize-factor=1.0 / no-dynamic-refine / no-single-sei / no-hevc-aq / no-svt / no-field / qp-adaptation-range=1.00 / scenecut-aware-qp=0conformance-window-offsets / right=0 / bottom=0 / decoder-max-rate=0 / no-vbv-live-multi-pass
Язык : Russian
Default : Да
Forced : Нет
Аудио #1
Идентификатор : 2
ID in the original source medium : 4353 (0x1101)
Формат : DTS XLL
Формат/Информация : Digital Theater Systems
Коммерческое название : DTS-HD Master Audio
Идентификатор кодека : A_DTS
Продолжительность : 2 ч. 18 м.
Вид битрейта : Переменный
Битрейт : 5 024 Кбит/сек
Каналы : 6 каналов
Channel layout : C L R Ls Rs LFE
Частота : 48,0 КГц
Частота кадров : 93,750 кадра/сек (512 SPF)
Битовая глубина : 24 бит
Метод сжатия : Без потерь
Размер потока : 4,85 Гбайт (33%)
Заголовок : DTS-HD Master Audio, 5 024 Кбит/сек
Язык : Russian
Default : Да
Forced : Нет
Носитель оригинала : Blu-ray
Аудио #2
Идентификатор : 3
ID in the original source medium : 4352 (0x1100)
Формат : PCM
Настройки формата : Little / Signed
Идентификатор кодека : A_PCM/INT/LIT
Продолжительность : 2 ч. 18 м.
Вид битрейта : Постоянный
Битрейт : 1 536 Кбит/сек
Каналы : 2 канала
Частота : 48,0 КГц
Частота кадров : 30,000 кадров/сек (1600 SPF)
Битовая глубина : 16 бит
Размер потока : 1,48 Гбайт (10%)
Заголовок : PCM, 1 536 Кбит/сек
Язык : Russian
Default : Нет
Forced : Нет
Носитель оригинала : Blu-ray
Меню
00:00:00.000 : en:Интро
00:02:22.400 : en:Жить вопреки
00:07:25.360 : en:Власть огня
00:12:32.280 : en:Вавилон
00:19:03.400 : en:Наваждение
00:25:31.640 : en:Дыхание последней любви
00:31:59.920 : en:Белый ад
00:36:17.400 : en:Пророк
00:43:35.160 : en:Косово поле
00:53:07.160 : en:Сальери и его отражение
01:02:22.360 : en:Потерянный рай
01:09:11.120 : en:Дыхание тьмы
01:15:14.320 : en:Безумие
01:22:46.840 : en:Свет дневной иссяк
01:29:42.840 : en:Мёртвая зона
01:36:25.040 : en:Castlevania
01:43:18.320 : en:Реки времён
01:48:59.960 : en:Закат
01:53:56.800 : en:Следуй за мной
01:59:15.560 : en:Тореро
02:06:31.640 : en:Я свободен

Скриншоты

 GOLD TORRENT! DOWNLOAD TRAFFIC DOES NOT CONSIDER! 
Torrent: Registered [ 2022-06-09 04:01 ]   · F87D653D1B14E0E9AA882841EBFFD5DF9D9FF8C0

Download .torrent

Download

75 KB

Status: checked
Completed: 0 times
Size: 14.85 GB
Поделиться:
terms.php
[Profile] [PM]
Display posts:    
Reply to topic

Current time is: 26-Jun 11:39

All times are UTC + 3



You cannot post new topics in this forum
You cannot reply to topics in this forum
You cannot edit your posts in this forum
You cannot delete your posts in this forum
You cannot vote in polls in this forum
You cannot attach files in this forum
You can download files in this forum