Что? Где? Когда? Летняя серия игр [01-03 из 04] (2022) HDTV 1080i

Reply to topic
DL-List and Torrent activity [Update пиров]
Size:  9.47 GB   |    Registered:  19 days   |    Completed:  0 times
Seeders:  2  [  0 KB/s  ]   Leechers:  1  [  0 KB/s  ]   Show peers in full details
 
   
 
 
Author Message

admin ®

Gender: Male

Longevity: 4 years 9 months

Posts: 18801

Location: Россия

Post 07-Jun-2022 07:00

[Quote]

Информация о фильме
Название: Что? Где? Когда? Летняя серия игр
Год выхода: 2022
Жанр: Телевизионная игра, познавательный, развлекательный, интеллектуальный
Ведущий: Борис Крюк
О фильме:
Интеллектуальная викторина, наиболее распространённая в русскоязычной среде. Была создана в 1975 г. телеведущим Владимиром Ворошиловым. Игра очень быстро стала настолько популярной, что кроме оригинальной телевизионной версии появилась спортивная версия игры. Сущность игры заключается в противостоянии команды Знатоков (игровой команды из шести человек) команде Телезрителей. Знатоки должны за одну минуту при помощи мозгового штурма найти ответ на вопрос, присланный телезрителем. Как правило, игрокам задаются вопросы, ответить на которые можно с помощью общих знаний и логики. За каждый правильный ответ команда Знатоков получает одно очко, в случае неверного ответа очко начисляется команде Телезрителей. Игра ведётся до шести очков.

Анонс

Первая игра от 22 мая 2022 года, команда Дарины Сибуль: Всеволод Седов, Денис Потехин, Михаил Лоев, Олег Баранов, Диана Агейченкова, Дарина Сибуль.
Вторая игра от 29 мая 2022 года, команда Николая Русскина: Александр Толмачёв, Павел Ячменёв, Арсений Малышев, Яков Новиков, Павел Журавлёв, Николай Русскин.
Третья игра от 05 июня 2022 года, команда Дениса Элькиса: Денис Мишин, Дарья Крылова, Дмитрий Акулов, Виктория Головня, Семён Попов, Денис Элькис.
Страна: Россия
Студия: Продюсерский центр "ИГРА-ТВ"
Продолжительность: 3 х ~ 01:00:00
Язык: Русский
Премьера: 22 мая 2022 года
Примечание: Без рекламы
Файл
Формат: TS
Качество: HDTV 1080i
Видео: MPEG-4 AVC, ~ 7000 Кбит/с, 1920x1080
Аудио #01: MP2, 2 ch, 192 Кбит/с | RUS
Аудио #02: AC3, 2 ch, 384 Кбит/с | RUS

Скриншоты

MI

Общее
Идентификатор : 1 (0x1)
Полное имя : D:Chto.Gde.Kogda.Letnjaja serija.Igr.2022.HDTV(1080i).25Kuzmich�1.Chto.Gde.Kogda.Letnjaja serija.Igr.2022.HDTV(1080i).25Kuzmich.ts
Формат : MPEG-TS
Размер файла : 3,08 Гбайт
Продолжительность : 55 м. 15 с.
Режим общего битрейта : Переменный
Общий поток : 7 983 Кбит/сек
Видео
Идентификатор : 101 (0x65)
Идентификатор меню : 1 (0x1)
Формат : AVC
Формат/Информация : Advanced Video Codec
Профиль формата : High@L4
Настройки формата : CABAC / 3 Ref Frames
Параметр CABAC формата : Да
Параметр RefFrames формата : 3 кадра
Параметр GOP формата : M=2, N=32
Идентификатор кодека : 27
Продолжительность : 55 м. 14 с.
Битрейт : 7 007 Кбит/сек
Ширина : 1 920 пикселей
Высота : 1 080 пикселей
Соотношение сторон : 16:9
Частота кадров : 25,000 кадров/сек
Стандарт вещания : Component
Цветовое пространство : YUV
Субдискретизация насыщенности : 4:2:0
Битовая глубина : 8 бит
Тип развёртки : Чересстрочная
Метод сохранения типа развёртки : Раздельные поля
Порядок развёртки : Верхнее поле первое
Бит/(Пиксели*Кадры) : 0.135
Размер потока : 2,70 Гбайт (88%)
Цветовой диапазон : Limited
Основные цвета : BT.709
Характеристики трансфера : BT.709
Коэффициенты матрицы : BT.709
Аудио #1
Идентификатор : 256 (0x100)
Идентификатор меню : 1 (0x1)
Формат : MPEG Audio
Версия формата : Version 1
Профиль формата : Layer 2
Идентификатор кодека : 3
Продолжительность : 55 м. 14 с.
Вид битрейта : Постоянный
Битрейт : 192 Кбит/сек
Каналы : 2 канала
Частота : 48,0 КГц
Частота кадров : 41,667 кадра/сек (1152 SPF)
Метод сжатия : С потерями
Размер потока : 75,9 Мбайт (2%)
Язык : Russian
Аудио #2
Идентификатор : 257 (0x101)
Идентификатор меню : 1 (0x1)
Формат : AC-3
Формат/Информация : Audio Coding 3
Коммерческое название : Dolby Digital
Идентификатор кодека : 6
Продолжительность : 55 м. 14 с.
Вид битрейта : Постоянный
Битрейт : 384 Кбит/сек
Каналы : 6 каналов
Channel layout : L R C LFE Ls Rs
Частота : 48,0 КГц
Частота кадров : 31,250 кадров/сек (1536 SPF)
Метод сжатия : С потерями
Размер потока : 152 Мбайт (5%)
Язык : Russian
Service kind : Complete Main
 GOLD TORRENT! DOWNLOAD TRAFFIC DOES NOT CONSIDER! 
Torrent: Registered [ 2022-06-07 07:00 ]   · 15141EF380ED817680ED1159B8427DFDCAD00117

Download .torrent

Download

48 KB

Status: checked
Completed: 0 times
Size: 9.47 GB
Поделиться:
terms.php
[Profile] [PM]
Display posts:    
Reply to topic

Current time is: 26-Jun 11:10

All times are UTC + 3



You cannot post new topics in this forum
You cannot reply to topics in this forum
You cannot edit your posts in this forum
You cannot delete your posts in this forum
You cannot vote in polls in this forum
You cannot attach files in this forum
You can download files in this forum