Evergrey - A Heartless Portrait (The Orphean Testament) (2022) FLAC

Reply to topic
DL-List and Torrent activity [Update пиров]
Size:  339 MB   |    Registered:  15 days   |    Completed:  0 times

Seeder not seen: Never

Leechers:  1  [  0 KB/s  ]   Show peers in full details
 
   
 
 
Author Message

admin ®

Gender: Male

Longevity: 4 years 8 months

Posts: 18175

Location: Россия

Post 13-May-2022 12:42

[Quote]

Название: A Heartless Portrait (The Orphean Testament)
Исполнитель: Evergrey
Год: 2022
Жанр: Progressive Power Metal
Страна: Gothenburg, Sweden
Издание: Napalm Records Handels GmbH - NPR1085CD
Продолжительность: 00:50:19
Формат/Кодек: FLAC
Битрейт аудио: Lossless / tracks + .cue
Трек-лист
01. Save Us (4:46)
02. Midwinter Calls (5:06)
03. Ominous (6:10)
04. Call Out The Dark (4:24)
05. The Orphean Testament (6:30)
06. Reawakening (4:16)
07. The Great Unwashed (6:04)
08. Heartless (5:09)
09. Blindfolded (4:13)
10. Wildfires (3:41)

Отчёт auCDtect Task manager:

-----------------------
DON'T MODIFY THIS FILE
-----------------------
PERFORMER: auCDtect Task Manager, ver. 1.6.0 RC1 build 1.6.0.1
Copyright (c) 2008-2010 y-soft. All rights reserved
http://y-soft.org
ANALYZER: auCDtect: CD records authenticity detector, version 0.8.2
Copyright (c) 2004 Oleg Berngardt. All rights reserved.
Copyright (c) 2004 Alexander Djourik. All rights reserved.
FILE: 10 Wildfires.flac
Size: 20860445 Hash: 2F80BB17A8E12A95536BB44A540D028B Accuracy: -m0
Conclusion: MPEG 100%
Signature: BC5C284FA7AE9C55235D3EC61DB940CAC854539B
FILE: 09 Blindfolded.flac
Size: 32542427 Hash: BDE2BE56A955845C449F50E87046F9E6 Accuracy: -m0
Conclusion: CDDA 100%
Signature: 0704D1F0EE18C23C096DB6FA6861D85955B52918
FILE: 08 Heartless.flac
Size: 36870531 Hash: 8E813638F1D00C3E8EE6A7C4F891347F Accuracy: -m0
Conclusion: CDDA 99%
Signature: C49862EB9F46861865FD9B49BBBF534FF09A735F
FILE: 07 The Great Unwashed.flac
Size: 39512833 Hash: B6DC400E6458FBF6044E77F092191120 Accuracy: -m0
Conclusion: CDDA 100%
Signature: 6ACF29E81668851617D08BC09A77E207C6B0FCD2
FILE: 06 Reawakening.flac
Size: 32067669 Hash: 4A638737F4A3AD89AE19418CE4657E17 Accuracy: -m0
Conclusion: CDDA 99%
Signature: F89916E8D373BD34DBD225309904C465718A03DA
FILE: 05 The Orphean Testament.flac
Size: 47839544 Hash: 8F7A799A50003D86F0C8A9B844C246D3 Accuracy: -m0
Conclusion: CDDA 100%
Signature: F502188C97B4DBF468B2E83CC2985A1869E2B5C9
FILE: 04 Call Out The Dark.flac
Size: 31436338 Hash: 1E29967315F2FCA6061C6C6F587C5ACF Accuracy: -m0
Conclusion: CDDA 100%
Signature: 2E91DF233C05AD4E79608FF9804EBC8765B29E10
FILE: 03 Ominous.flac
Size: 41110632 Hash: 1285C072EA90A9487C8934F810C150C6 Accuracy: -m0
Conclusion: CDDA 100%
Signature: 4AD8BB54B880F9A49C64D69B5658DD5066EDF0A3
FILE: 02 Midwinter Calls.flac
Size: 37581202 Hash: 22C66478FB09034769EF2441EB973AF3 Accuracy: -m0
Conclusion: CDDA 100%
Signature: C24A385AC40AC12DE2675D5EB1ADB88B63183DC5
FILE: 01 Save Us.flac
Size: 35678614 Hash: 92203261A69C1E7680B736EE067A9038 Accuracy: -m0
Conclusion: CDDA 100%
Signature: 57B314AC5A879280CD305B0EE600C01C2D963A45

Speek:

CUETools

[CTDB TOCID: EFymNk2imJ6QG6jE67AwQc9r0co-] disk not present in database.
[AccurateRip ID: 0013a120-009cea65-930bcb0a] disk not present in database.
Track Peak [ CRC32 ] [W/O NULL]
-- 97,1 [7DE6D9A2] [A392EDC7]
01 97,1 [F0A5C3FE] [15E910F5]
02 97,1 [6810BCDA] [4479F63F]
03 97,1 [7CA3E512] [194FF84D]
04 97,1 [7442B805] [41AF9A45]
05 97,1 [D87B947F] [AED12E99]
06 97,1 [328C8FBA] [25088FED]
07 97,1 [C7BD38E1] [DB624B6D]
08 97,1 [7427E0FD] [BC6F0F0D]
09 97,1 [49623077] [602EDEB0]
10 94,9 [A9503DB4] [9F069118]

DRM:

foobar2000 1.6.9 / Dynamic Range Meter 1.1.1
--------------------------------------------------------------------------------
Analyzed: Evergrey / A Heartless Portrait (The Orphéan Testament)
--------------------------------------------------------------------------------
DR Peak RMS Duration Track
--------------------------------------------------------------------------------
DR6 -0.25 dB -7.54 dB 4:46 01-Save Us
DR6 -0.25 dB -7.39 dB 5:06 02-Midwinter Calls
DR7 -0.25 dB -8.60 dB 6:10 03-Ominous
DR6 -0.25 dB -7.84 dB 4:24 04-Call Out The Dark
DR6 -0.25 dB -6.98 dB 6:30 05-The Orphean Testament
DR6 -0.25 dB -7.56 dB 4:16 06-Reawakening
DR6 -0.25 dB -8.15 dB 6:04 07-The Great Unwashed
DR7 -0.25 dB -8.43 dB 5:09 08-Heartless
DR6 -0.25 dB -7.17 dB 4:13 09-Blindfolded
DR9 -0.45 dB -11.60 dB 3:41 10-Wildfires
--------------------------------------------------------------------------------
Number of tracks: 10
Official DR value: DR7
Samplerate: 44100 Hz
Channels: 2
Bits per sample: 16
Bitrate: 752 kbps
Codec: FLAC
================================================================================
 GOLD TORRENT! DOWNLOAD TRAFFIC DOES NOT CONSIDER! 
Torrent: Registered [ 2022-05-13 12:42 ]   · 196949C0F63F1ED53501A10FE585415DC378CCDE

Download .torrent

Download

15 KB

Status: checked
Completed: 0 times
Size: 339 MB
Поделиться:
terms.php
[Profile] [PM]
Display posts:    
Reply to topic

Current time is: 29-May 05:23

All times are UTC + 3



You cannot post new topics in this forum
You cannot reply to topics in this forum
You cannot edit your posts in this forum
You cannot delete your posts in this forum
You cannot vote in polls in this forum
You cannot attach files in this forum
You can download files in this forum