Noisia - Closer [24-bit Hi-Res] (2022) FLAC

Reply to topic
DL-List and Torrent activity [Update пиров]
Size:  909 MB   |    Registered:  15 days   |    Completed:  0 times

Seeder not seen: Never

Leechers:  1  [  0 KB/s  ]   Show peers in full details
 
   
 
 
Author Message

admin ®

Gender: Male

Longevity: 4 years 8 months

Posts: 18159

Location: Россия

Post 13-May-2022 12:34

[Quote]

Название: Closer
Исполнитель: Noisia
Год: 2022
Жанр: Drum-n-Bass
Страна: Netherlands
Продолжительность: 01:19:15
Формат/Кодек: FLAC
Тип рипа: Tracks
Битрейт аудио: Lossless
Разрядность: 16/24 Bit/48 kHz
Носитель: WEB

Трек-лист

01. Noisia - Three (Intro) (00:55)
02. Noisia, Camo & Krooked - Nova (04:36)
03. Noisia, The Upbeats - Shibuya Pet Store (04:50)
04. Noisia, IMANU - Shift (04:20)
05. Noisia, Skrillex - Horizon (05:24)
06. Noisia, Former - Cleansing (04:31)
07. Noisia, Mefjus - Foundations (03:54)
08. Noisia - Scrapped (03:03)
09. Noisia - Shutters (01:54)
10. Noisia, The Upbeats - Halcyon (06:06)
11. Noisia, Halogenix - Wordless (05:52) || 16bit
12. Noisia - Told You (01:19)
13. Noisia, Two Fingers - Dzjengis (05:38)
14. Noisia, Former - Pleasure Model (04:11)
15. Noisia, Phace - Deep Down (04:52)
16. Noisia, Posij - Simplon (03:43) || 16bit
17. Noisia, Black Sun Empire - Caps Lock (04:50)
18. Noisia, Skrillex, josh pan, Dylan Brady - Supersonic (VIP) (03:27)
19. Noisia - The Hole Pt. 1 (03:48)
20. Noisia - Closer (02:02) || 16bit

DRM
foobar2000 1.6.11 / Замер динамического диапазона (DR) 1.1.1
Дата отчёта: 2022-05-12 11:24:21
--------------------------------------------------------------------------------
Анализ: Noisia / Closer
--------------------------------------------------------------------------------
DR Пики RMS Продолжительность трека
--------------------------------------------------------------------------------
DR8 -0.03 дБ -11.13 дБ 0:55 01-Three (Intro)
DR2 0.00 дБ -4.61 дБ 3:03 08-Scrapped
DR5 0.00 дБ -6.29 дБ 1:54 09-Shutters
DR4 -0.37 дБ -5.48 дБ 1:19 12-Told You
DR3 0.00 дБ -4.29 дБ 3:48 19-The Hole Pt. 1
--------------------------------------------------------------------------------
Количество треков: 5
Реальные значения DR: DR4
Частота: 48000 Гц
Каналов: 2
Разрядность: 24
Битрейт: 1820 кбит/с
Кодек: FLAC
================================================================================
--------------------------------------------------------------------------------
Статистика для: 20-Closer
Количество сэмплов: 5861054
Продолжительность: 2:02
--------------------------------------------------------------------------------
Левый Правый
Пики: 0.00 дБ --- 0.00 дБ
Средний RMS: -8.87 дБ --- -10.10 дБ
DR канала: 6.70 дБ --- 7.34 дБ
--------------------------------------------------------------------------------
Реальные значения DR: DR7
Частота: 48000 Гц
Каналов: 2
Разрядность: 16
Битрейт: 602 кбит/с
Кодек: FLAC
================================================================================
--------------------------------------------------------------------------------
Анализ: Noisia, Black Sun Empire / Closer (1)
Noisia, Camo & Krooked / Closer (2)
Noisia, Former / Closer (3-4)
--------------------------------------------------------------------------------
DR Пики RMS Продолжительность трека
--------------------------------------------------------------------------------
DR2 0.00 дБ -4.52 дБ 4:50 17-Caps Lock
DR3 0.00 дБ -5.44 дБ 4:36 02-Nova
DR4 0.00 дБ -6.07 дБ 4:31 06-Cleansing
DR3 0.00 дБ -5.61 дБ 4:11 14-Pleasure Model
--------------------------------------------------------------------------------
Количество треков: 4
Реальные значения DR: DR3
Частота: 48000 Гц
Каналов: 2
Разрядность: 24
Битрейт: 1722 кбит/с
Кодек: FLAC
================================================================================
--------------------------------------------------------------------------------
Статистика для: 11-Wordless
Количество сэмплов: 16878140
Продолжительность: 5:52
--------------------------------------------------------------------------------
Левый Правый
Пики: 0.00 дБ --- 0.00 дБ
Средний RMS: -6.83 дБ --- -6.86 дБ
DR канала: 3.92 дБ --- 3.93 дБ
--------------------------------------------------------------------------------
Реальные значения DR: DR4
Частота: 48000 Гц
Каналов: 2
Разрядность: 16
Битрейт: 865 кбит/с
Кодек: FLAC
================================================================================
--------------------------------------------------------------------------------
Анализ: Noisia, IMANU / Closer (1)
Noisia, Mefjus / Closer (2)
Noisia, Phace / Closer (3)
Noisia, Posij / Closer (4)
Noisia, Skrillex / Closer (5)
Noisia, Skrillex, josh pan, Dylan Brady / Closer (6)
Noisia, The Upbeats / Closer (7-8)
--------------------------------------------------------------------------------
DR Пики RMS Продолжительность трека
--------------------------------------------------------------------------------
DR2 0.00 дБ -5.56 дБ 4:20 04-Shift
DR2 0.00 дБ -4.21 дБ 3:54 07-Foundations
DR2 0.00 дБ -4.58 дБ 4:52 15-Deep Down
DR2 0.00 дБ -5.51 дБ 3:43 16-Simplon
DR3 0.00 дБ -5.71 дБ 5:24 05-Horizon
DR2 0.00 дБ -5.45 дБ 3:27 18-Supersonic (VIP)
DR2 0.00 дБ -4.90 дБ 4:50 03-Shibuya Pet Store
DR2 0.00 дБ -4.50 дБ 6:06 10-Halcyon
--------------------------------------------------------------------------------
Количество треков: 8
Реальные значения DR: DR2
Частота: 48000 Гц
Каналов: 2
Разрядность: 24
Битрейт: 1846 кбит/с
Кодек: FLAC
================================================================================
--------------------------------------------------------------------------------
Статистика для: 13-Dzjengis
Количество сэмплов: 16216617
Продолжительность: 5:38
--------------------------------------------------------------------------------
Левый Правый
Пики: 0.00 дБ --- 0.00 дБ
Средний RMS: -8.62 дБ --- -8.59 дБ
DR канала: 6.49 дБ --- 6.44 дБ
--------------------------------------------------------------------------------
Реальные значения DR: DR6
Частота: 48000 Гц
Каналов: 2
Разрядность: 16
Битрейт: 963 кбит/с
Кодек: FLAC
================================================================================
 GOLD TORRENT! DOWNLOAD TRAFFIC DOES NOT CONSIDER! 
Torrent: Registered [ 2022-05-13 12:34 ]   · F8F29B1E3022D7AEBF20250E3F4C9DED66F7AE42

Download .torrent

Download

38 KB

Status: checked
Completed: 0 times
Size: 909 MB
Поделиться:
terms.php
[Profile] [PM]
Display posts:    
Reply to topic

Current time is: 29-May 04:20

All times are UTC + 3



You cannot post new topics in this forum
You cannot reply to topics in this forum
You cannot edit your posts in this forum
You cannot delete your posts in this forum
You cannot vote in polls in this forum
You cannot attach files in this forum
You can download files in this forum