Начальник разведки [01-08 из 08] (2022) HDTV 1080p от Generalfilm

Reply to topic
DL-List and Torrent activity [Update пиров]
Size:  20.12 GB   |    Registered:  29 days   |    Completed:  0 times
Seeders:  10  [  0 KB/s  ]   Leechers:  3  [  0 KB/s  ]   Show peers in full details
 
   
 
 
Author Message

admin ®

Gender: Male

Longevity: 4 years 8 months

Posts: 18175

Location: Россия

Post 30-Apr-2022 01:45

[Quote]

Начальник разведки
Год выпуска: 2022
Страна: Россия, Кинокомпания «Точка»
Жанр: драма, история, биография, детектив-Перевод: Не требуется
Продолжительность: ~ 00:47:32-Режиссер: Кирилл Белевич
В ролях: Сергей Марин, Игорь Петренко, Иван Добронравов, Екатерина Вилкова, Артём Ткаченко, Егор Бероев, Екатерина Волкова (I), Иван Стебунов, Николай Иванов (II), Виталий Крылов, Леван Мсхиладзе, Дирк Мартенс, Юлиан Мау, Джошуа Гроте, Кристиан Мок, Марцин Стец, Виталий Кищенко, Анатолий Кот, Лев Прыгунов, Сергей Угрюмов, Дмитрий Куличков, Карэн Бадалов, Юрий Нифонтов, Вера Строкова, Алексей Родионов (IV), Дарья Жовнер, Дмитрий Готсдинер, Александр Назаров (II), Вячеслав Разбегаев, Дарья Иванова, Мария Смольникова, Серафима Герцева, Настасья Кербенген, Максим Битюков, Любовь Ярлыкова, Юрий Дейнекин, Дмитрий Овчинников, Джан Бадмаев, Игорь Хрипунов, Михаил Мартьянов, Анастасия Обжигина-Описание:
История становления советской разведки, рассказанная через судьбу её самого молодого руководителя — 31-летнего Павла Фитина, человека, который в кратчайшие сроки вопреки всему и вся возродил её из пепла репрессий и сделал одной из сильнейших спецслужб мира. Вклад Фитина в развитие возглавляемого ведомства сложно переоценить. Благодаря своим организаторским способностям и профессиональной интуиции он наладил необходимые механизмы для того, чтобы добывать для руководства страны самую ценную информацию.-Рейтинг:
-Качество: HDTV 1080p
Формат: MKV
Видео: MPEG-4 AVC, 1920x1080 (16:9), 25.000 fps, 6 893 kb/s (0.133 bit/pixel)
Аудио: AC3 / 2.0 / 48 kHz / 192 kbps /-

ОтчетМедиаИнфо

General
Unique ID : 207411850466405711856091795220078406173 (0x9C0A11C1CCC674A0BC4F061DB69A2A1D)
Complete name : D:Nachalnik razvedki S01 2022 HDTV 1080p.R.G.GeneralfilmNachalnik razvedki.s01.e01.2022.HDTV 1080p.by.White Smoke.R.G.Generalfilm.mkv
Format : Matroska
Format version : Version 4
File size : 2.40 GiB
Duration : 47 min 32 s
Overall bit rate mode : Variable
Overall bit rate : 7 229 kb/s
Movie name : Nachalnik razvedki.s01.e01.2022.HDTV 1080p.by.White Smoke.R.G.Generalfilm.mkv
Encoded date : UTC 2022-04-18 17:36:27
Writing application : mkvmerge v6.8.0 ('Theme for Great Cities') 64bit built on Mar 2 2014 21:34:26
Writing library : libebml v1.3.0 + libmatroska v1.4.1
Cover : Yes
Attachments : cover.jpg
Video
ID : 1
Format : AVC
Format/Info : Advanced Video Codec
Format profile : High@L4.1
Format settings : CABAC / 3 Ref Frames
Format settings, CABAC : Yes
Format settings, Reference frames : 3 frames
Codec ID : V_MPEG4/ISO/AVC
Duration : 47 min 32 s
Bit rate mode : Variable
Bit rate : 6 893 kb/s
Maximum bit rate : 7 051 kb/s
Width : 1 920 pixels
Height : 1 080 pixels
Display aspect ratio : 16:9
Frame rate mode : Constant
Frame rate : 25.000 FPS
Standard : PAL
Color space : YUV
Chroma subsampling : 4:2:0
Bit depth : 8 bits
Scan type : Progressive
Bits/(Pixel*Frame) : 0.133
Stream size : 2.29 GiB (95%)
Default : No
Forced : No
Color range : Limited
Color primaries : BT.709
Transfer characteristics : BT.709
Matrix coefficients : BT.709
Audio
ID : 2
Format : AC-3
Format/Info : Audio Coding 3
Commercial name : Dolby Digital
Codec ID : A_AC3
Duration : 47 min 32 s
Bit rate mode : Constant
Bit rate : 192 kb/s
Channel(s) : 2 channels
Channel layout : L R
Sampling rate : 48.0 kHz
Frame rate : 31.250 FPS (1536 SPF)
Compression mode : Lossy
Delay relative to video : -200 ms
Stream size : 65.3 MiB (3%)
Service kind : Complete Main
Default : Yes
Forced : No

Скриншоты

 GOLD TORRENT! DOWNLOAD TRAFFIC DOES NOT CONSIDER! 
Torrent: Registered [ 2022-04-30 01:45 ]   · C660B31E562490DEA9F52F040E4C38B64BA5CAE2

Download .torrent

Download

52 KB

Status: checked
Completed: 0 times
Size: 20.12 GB
Поделиться:
terms.php
[Profile] [PM]
Display posts:    
Reply to topic

Current time is: 29-May 05:23

All times are UTC + 3



You cannot post new topics in this forum
You cannot reply to topics in this forum
You cannot edit your posts in this forum
You cannot delete your posts in this forum
You cannot vote in polls in this forum
You cannot attach files in this forum
You can download files in this forum