Sabaton - The Unkillable Soldier [Клип] (2022) WEBRip 2160p

Reply to topic
 
Author Message

admin ®

Gender: Male

Longevity: 4 years 8 months

Posts: 18181

Location: Россия

Post 14-Feb-2022 05:25

[Quote]

Название: The Unkillable Soldier [Клип]
Исполнитель: Sabaton
Год: 2022
Жанр: Heavy-Metal, Power-Metal
Страна: Sweden
Продолжительность: 00:04:32
Формат/Кодек: WEBRip, VP9
Video: VP9, 6480 kb/s, Aspect 2560x1350 (1.896), 25.000 fps
Audio: PCM, 1411.2 kb/s, Infos 2 channels, 44.1 kHz

Mi:

Format : Matroska
Format version : Version 4
File size : 257 MiB
Duration : 4 min 32 s
Overall bit rate : 7 893 kb/s
Encoded date : UTC 2022-02-13 13:43:23
Writing application : mkvmerge v51.0.0 ('I Wish') 64-bit
Writing library : libebml v1.4.0 + libmatroska v1.6.2
Video
ID : 1
Format : VP9
Codec ID : V_VP9
Duration : 4 min 32 s
Bit rate : 6 480 kb/s
Width : 2 560 pixels
Height : 1 350 pixels
Display aspect ratio : 1.896
Frame rate mode : Constant
Frame rate : 25.000 FPS
Color space : YUV
Bits/(Pixel*Frame) : 0.075
Stream size : 211 MiB (82%)
Language : English
Default : Yes
Forced : No
Color range : Limited
Color primaries : BT.709
Transfer characteristics : BT.709
Matrix coefficients : BT.709
Audio
ID : 2
Format : PCM
Format settings : Little / Signed
Codec ID : A_PCM/INT/LIT
Duration : 4 min 32 s
Bit rate mode : Constant
Bit rate : 1 411.2 kb/s
Channel(s) : 2 channels
Sampling rate : 44.1 kHz
Frame rate : 5.002 FPS (8816 SPF)
Bit depth : 16 bits
Stream size : 45.9 MiB (18%)
Default : Yes
Forced : No

Скриншоты

[Profile] [PM]
Display posts:    
Reply to topic

Current time is: 29-May 05:41

All times are UTC + 3



You cannot post new topics in this forum
You cannot reply to topics in this forum
You cannot edit your posts in this forum
You cannot delete your posts in this forum
You cannot vote in polls in this forum
You cannot attach files in this forum
You cannot download files in this forum