Молодёжка / Сезон: 5 / Серии: 1-20 из 44 (Сергей Арланов) [2017, Драма, спорт, WEBRip]

Reply to topic
DL-List and Torrent activity
Size:  11.72 GB   |    Registered:  2 years 2 months   |    Completed:  0 times
Seeders:  3  [  0 KB/s  ]   Leechers:  2  [  0 KB/s  ]   Show peers in full details
 
   
 
 
Author Message

admin ®

Gender: Male

Longevity: 2 years 2 months

Posts: 14882

Post 02-Oct-2017 07:53

[Quote]

Молодежка-5 -Год выпуска: 2017
Производство: Россия, ООО Арт Пикчерс Вижн при поддержке КХЛ
Жанр: Драма, спорт
Продолжительность: 00:47:00
Субтитры: Нет-Режиссёр: Сергей Арланов-В ролях: Серафима Низовская, Владимир Зайцев, Сергей Габриэлян, Денис Никифоров, Валентина Ананьина, Сергей Комаров (II), Михаил Жигалов, Фёдор Бондарчук, Анатолий Лобоцкий, Ксения Лаврова-Глинка, Макар Запорожский, Александр Соколовский, Влад Канопка, Илья Коробко, Игорь Огурцов, Анна Михайловская, Иван Жвакин-Описание:
После триумфального завершения сезона под руководством Макеева сериал «Молодежка» возвращается вместе с повзрослевшими героями, которым теперь предстоит играть в Высшей Хоккейной Лиге. Смогут ли они вписаться в новую команду и достойно проявить себя в составе «Бурых медведей», вы узнаете, если будете смотреть онлайн продолжение самой рейтинговой спортивной драмы на российском ТВ «Молодежка» 5 сезон.
Новый сезон порадует зрителей еще более масштабными хоккейными сценами, неожиданными сюжетными поворотами и участием таких известных актеров, как Наталья Рудова, Сергей Горобченко, Максим Дрозд, Петр Кислов, Дмитрий Куличков, Сергей Степин и Владимир Яглыч. Последний играет в проекте «Молодежка» 5 сезон нападающего Руслана Жданова – баловня судьбы из влиятельной семьи, женатого на модели (Наталья Рудова) и считающего себя истинным хозяином положения как на льду, так и в жизни. Какие потрясения ждут самоуверенного героя, можно узнать совершенно бесплатно, если смотреть онлайн сериал «Молодежка» в хорошем качестве.
Правую руку Жданова – вратаря Ивана Савчука – играет Петр Кислов, известный зрителям СТС по сериалам «Закрытая школа» и «До смерти красива». Его персонаж ревностно относится к появлению в команде Семена Бакина (Игорь Огурцов) и не упускает повода поиздеваться над вторым вратарем. Наблюдать за своеобразным противостоянием старожила и новичка в хорошем качестве можно, если смотреть онлайн сериал «Молодежка» 5 сезон.
Задиристый характер Савчука заявит о себе с самой первой серии, которой откроется новый сезон. В ней вратарь «Бурых медведей» затеет потасовку в спорт-баре с Андреем Кисляком (Влад Канопка). Чем закончится зрелищная драка, какие еще сюрпризы готовит зрителям сериал «Молодежка»,-Релиз группа
:arrow: Сэмпл-Качество: WEBRip
Формат: AVI
Видео кодек: XviD
Аудио кодек: AC3
Видео: 720x400 (16:9), 25.000 fps, XviD build 73, 1639 Kbps, 0.228 Bits/Pixel
Аудио: 48 kHz, AC3 Dolby Digital, 2 ch, 192 Kbps

MI

General
Complete name : X:\раздачи\Moldegka.5.2017.WEB-DLRip.RG.Russkie.serialy.&.Files-x\01.Moldegka.5.2017.WEB-DLRip.RG.Russkie.serialy.&.Files-x.avi
Format : AVI
Format/Info : Audio Video Interleave
File size : 601 MiB
Duration : 48 min 14 s
Overall bit rate : 1 740 kb/s
Writing application : VirtualDubMod 1.5.10.3 | www.virtualdub-fr.org || (build 2550/release)
Writing library : VirtualDubMod build 2550/release
Video
ID : 0
Format : MPEG-4 Visual
Format profile : Advanced Simple@L5
Format settings, BVOP : 1
Format settings, QPel : No
Format settings, GMC : No warppoints
Format settings, Matrix : Custom
Codec ID : XVID
Codec ID/Hint : XviD
Duration : 48 min 14 s
Bit rate : 1 539 kb/s
Width : 720 pixels
Height : 400 pixels
Display aspect ratio : 16:9
Frame rate : 25.000 FPS
Color space : YUV
Chroma subsampling : 4:2:0
Bit depth : 8 bits
Scan type : Progressive
Compression mode : Lossy
Bits/(Pixel*Frame) : 0.214
Stream size : 531 MiB (88%)
Writing library : XviD 73
Audio
ID : 1
Format : AC-3
Format/Info : Audio Coding 3
Format settings, Endianness : Big
Codec ID : 2000
Duration : 48 min 14 s
Bit rate mode : Constant
Bit rate : 192 kb/s
Channel(s) : 2 channels
Channel positions : Front: L R
Sampling rate : 48.0 kHz
Frame rate : 31.250 FPS (1536 spf)
Bit depth : 16 bits
Compression mode : Lossy
Stream size : 66.3 MiB (11%)
Alignment : Split accross interleaves
Interleave, duration : 40 ms (1.00 video frame)
Interleave, preload duratio : 500 ms
Service kind : Complete Main

Внимание! Раздача ведётся путём добавления новых серий!

Внимание! Раздача ведётся путём добавления новых серий
Внимание! Раздача ведётся путём добавления новых серий; при каждом добавлении создётся новый торрент.
Чтобы начать докачку новой серии, пользователям необходимо сделать следующее:
1) остановить скачивание
2) удалить старый торрент у себя из клиента (старые серии удалять не надо)
3) скачать новый торрент и запустить его у себя в клиенте вместо старого, при этом указать клиенту путь в старую папку куда и должно происходить скачивание новых серий.
Ваш клиент при этом должен произвести хеширование (проверку) старой папки (если не производит сам - помогите ему сделать это), и будет докачивать только те серии которых у вас ещё нет. Старые серии при этом не удаляются, а продолжают раздаваться!
Eсли вы уже удалили старые серии, то предотвратить повторную закачку старых серий можно, отжав галочку в соответствовавших местах при запуске нового торрента.

Скриншоты

 GOLD TORRENT! DOWNLOAD TRAFFIC DOES NOT CONSIDER! 
Torrent: Registered [ 2017-10-02 07:53 ]   · 5A1838885951EB104D2FF6BCFC812F0F6FD861DC

Download .torrent

Download

61 KB

Status: checked
Completed: 0 times
Size: 11.72 GB
Поделиться:
terms.php
[Profile] [PM]

nezHellst

Gender: Male

Longevity: 3 months 29 days

Posts: 2

Location: Russia

Post 06-Oct-2019 18:24 (after 2 years)

[Quote]

Давно уже смотрю сериал из за интереса линии Казанцев - Орлова - Жилин.
Вот это реально интересно. Бакины - забавно, но много. Макеев - отец молодец, но даже интрига с новым спортивным директором не цепляет сильно.
Только Казанцев
[Profile] [PM]
Display posts:    
Reply to topic

Current time is: 06-Dec 00:53

All times are UTC + 3



You cannot post new topics in this forum
You cannot reply to topics in this forum
You cannot edit your posts in this forum
You cannot delete your posts in this forum
You cannot vote in polls in this forum
You cannot attach files in this forum
You can download files in this forum