Out Of This World - Out Of This World [24-bit Hi-Res] (2021/2022) FLAC

Reply to topic
DL-List and Torrent activity [Update пиров]
Size:  563 MB   |    Registered:  5 days   |    Completed:  0 times
Seeders:  1  [  0 KB/s  ]   Leechers:  1  [  0 KB/s  ]   Show peers in full details
 
   
 
 
Author Message

admin ®

Gender: Male

Longevity: 4 years 3 months

Posts: 14738

Post 14-Jan-2022 05:35

[Quote]

Название: Out Of This World
Исполнитель: Out Of This World
Год: 2021/2022
Жанр: Hard-Rock
Страна: International
Продолжительность: 00:45:12
Формат/Кодек: FLAC
Битрейт аудио: Lossless|WEB-DL [24bit/44.1kHz]

Трек-лист

01. Twilight (7:25)
02. Hanging On (3:35)
03. In A Million Years (4:09)
04. Lighting Up My Dark (3:55)
05. Staring At The Sun (4:09)
06. The Warrior (4:16)
07. Up To You (4:22)
08. Ain't Gonna Let You Go (4:48)
09. Only You Can Teach Me How To Love Again (4:01)
10. Not Tonight (4:33)

DRM:

foobar2000 1.6.5 / Dynamic Range Meter 1.1.1
--------------------------------------------------------------------------------
Analyzed: Out Of This World / Out Of This World
--------------------------------------------------------------------------------
DR Peak RMS Duration Track
--------------------------------------------------------------------------------
DR9 0.00 dB -9.64 dB 7:25 01-Twilight
DR8 0.00 dB -8.93 dB 3:35 02-Hanging On
DR8 0.00 dB -9.30 dB 4:09 03-In A Million Years
DR8 0.00 dB -9.18 dB 3:55 04-Lighting Up My Dark
DR8 0.00 dB -8.77 dB 4:09 05-Staring At The Sun
DR7 0.00 dB -8.28 dB 4:16 06-The Warrior
DR8 0.00 dB -9.54 dB 4:22 07-Up To You
DR8 0.00 dB -8.73 dB 4:48 08-Ain't Gonna Let You Go
DR8 0.00 dB -9.45 dB 4:01 09-Only You Can Teach Me How To Love Again
DR9 0.00 dB -9.93 dB 4:33 10-Not Tonight
--------------------------------------------------------------------------------
Number of tracks: 10
Official DR value: DR8
Samplerate: 44100 Hz
Channels: 2
Bits per sample: 24
Bitrate: 1709 kbps
Codec: FLAC
================================================================================
Out Of This World - дебютный одноимённый альбом международного мелодик-хард-рок проекта Out Of This World. Был выпущен 2 апреля 2021 года на лейбле RCA Victor.
Два популярных в мелодик-роковых кругах музыканта - Tommy Heart, вокалист немецкой группы Fair Warning, и Kee Marcello, бывший гитарист Europe - записали дебютный альбом своего совместного проекта Out Of This World. Одноимённый лонгплей был реализован 2 апреля в Японии на лейбле RCA Victor. О его издании в остальных регионах мира пока ничего не известно.
Вместе с Томми и Ки в состав Out Of This World входят бас-гитарист Ken Sandin, известный по работе со Swedish Erotica, Alien и Transport League, и барабанщик Darby Todd, который сотрудничал с Martin Barre и Gary Moore. В четырёх треках альбома был задействован Don Airey, знаменитый клавишник легендарных Deep Purple, а в качестве продюсера выступил американский звукорежиссёр Ron Nevison, известный своим сотрудничеством с Оззи Осборном, Led Zeppelin, UFO, Kiss, Europe и многими другими.
В качестве бонуса к новому студийному альбому прилагается концертный диск Live From The Heat, на котором группа исполняет избранные номера из истории Ки и Томми, включая треки их предыдущего совместного проекта Kee Of Hearts (2017).
 GOLD TORRENT! DOWNLOAD TRAFFIC DOES NOT CONSIDER! 
Torrent: Registered [ 2022-01-14 05:35 ]   · C576BDB68F0A3B2C0A914D2BD4947760A4789A81

Download .torrent

Download

12 KB

Status: checked
Completed: 0 times
Size: 563 MB
Поделиться:
terms.php
[Profile] [PM]
Display posts:    
Reply to topic

Current time is: 19-Jan 13:04

All times are UTC + 3



You cannot post new topics in this forum
You cannot reply to topics in this forum
You cannot edit your posts in this forum
You cannot delete your posts in this forum
You cannot vote in polls in this forum
You cannot attach files in this forum
You can download files in this forum