Baptiste Trotignon - Anima [24-bit Hi-Res] (2021) FLAC

Reply to topic
DL-List and Torrent activity [Update пиров]
Size:  1000 MB   |    Registered:  5 days   |    Completed:  0 times

Seeder not seen: Never

Leechers:  2  [  0 KB/s  ]   Show peers in full details
 
   
 
 
Author Message

admin ®

Gender: Male

Longevity: 4 years 3 months

Posts: 14738

Post 14-Jan-2022 04:09

[Quote]

Название: Anima
Исполнитель: Baptiste Trotignon
Год: 2022
Released:January 14th 2022
Жанр: Classical (Modern)
Страна: Франция
Label: Outhere Music France 2021 Orchestre Victor Hugo Franche-Comté
Продолжительность: 00:55:27
Формат/Кодек: FLAC
Битрейт аудио: Lossless [24-Bit 96.0 kHz - Stereo]

Трек-лист

Trotignon L'air de rien
01 - Pt. 1 3 + 2 (00:05:52)
02 - Pt. 2 Cadenza & Toccata (00:05:02)
03 - Pt. 3 Tango ! (00:02:46)
Trotignon Anima
04 - I. Grave (00:03:55)
05 - IIa. Allegretto meccanico (00:04:46)
06 - IIb. A peine plus allant (00:06:26)
07 - III. Andante tranquillo (00:04:58)
08 - IV. Prestissimo fantastico (00:03:51)
09 - V. Alla marcia (00:07:16)
Trotignon Hiatus et turbulences
10 - Pt. 1 Noire pointée=180 (00:04:42)
11 - Pt. 2 Très doux (00:03:04)
12 - Pt. 3 Subito più mosso (00:02:45)

DR

foobar2000 1.4.2 / Dynamic Range Meter 1.1.1
log date: 2022-01-13 08:06:28
--------------------------------------------------------------------------------
Analyzed: Baptiste Trotignon, Orchestre Victor Hugo & Jean-François Verdier / Anima
--------------------------------------------------------------------------------
DR Peak RMS Duration Track
--------------------------------------------------------------------------------
DR14 -1.34 dB -18.87 dB 5:52 01-Trotignon: L'air de rien, Pt. 1: 3 + 2
DR13 -0.09 dB -17.66 dB 5:02 02-Trotignon: L'air de rien, Pt. 2: Cadenza & Toccata
DR13 -0.40 dB -17.56 dB 2:47 03-Trotignon: L'air de rien, Pt. 3: Tango !
DR12 -4.85 dB -22.72 dB 3:55 04-Trotignon: Anima: I. Grave
DR13 -0.83 dB -19.41 dB 4:46 05-Trotignon: Anima: IIa. Allegretto meccanico
DR14 -0.11 dB -18.84 dB 6:27 06-Trotignon: Anima: IIb. A peine plus allant
DR13 -2.32 dB -22.09 dB 4:58 07-Trotignon: Anima: III. Andante tranquillo
DR14 -0.25 dB -18.40 dB 3:51 08-Trotignon: Anima: IV. Prestissimo fantastico
DR13 -0.20 dB -18.58 dB 7:16 09-Trotignon: Anima: V. Alla marcia
DR12 -0.67 dB -17.38 dB 4:43 10-Trotignon: Hiatus et turbulences, Pt. 1: Noire pointГ©e=180
DR13 -1.93 dB -22.21 dB 3:05 11-Trotignon: Hiatus et turbulences, Pt. 2: TrГЁs doux
DR12 -0.16 dB -18.03 dB 2:45 12-Trotignon: Hiatus et turbulences, Pt. 3: Subito piГ№ mosso
--------------------------------------------------------------------------------
Number of tracks: 12
Official DR value: DR13
Samplerate: 96000 Hz
Channels: 2
Bits per sample: 24
Bitrate: 2523 kbps
Codec: FLAC
================================================================================
Baptiste Trotignon - French pianist, composer, arranger.
First symphonic album with three new pieces ANIMA, HIATUS & TURBULENCES, and L'AIR DE RIEN, Baptiste's concertino for Piano and Orchestra.
 GOLD TORRENT! DOWNLOAD TRAFFIC DOES NOT CONSIDER! 
Torrent: Registered [ 2022-01-14 04:09 ]   · 48337C4D9EFC49F66E2BD4780D4DE1C5B7B12CA6

Download .torrent

Download

21 KB

Status: checked
Completed: 0 times
Size: 1000 MB
Поделиться:
terms.php
[Profile] [PM]
Display posts:    
Reply to topic

Current time is: 19-Jan 13:22

All times are UTC + 3



You cannot post new topics in this forum
You cannot reply to topics in this forum
You cannot edit your posts in this forum
You cannot delete your posts in this forum
You cannot vote in polls in this forum
You cannot attach files in this forum
You can download files in this forum