Зверопой 2 / Sing 2 (2021) WEB-DL 1080p от New-Team | Jaskier

Reply to topic
DL-List and Torrent activity [Update пиров]
Size:  5.95 GB   |    Registered:  7 days   |    Completed:  0 times
Seeders:  114  [  0 KB/s  ]   Leechers:  37  [  0 KB/s  ]   Show peers in full details
 
   
 
 
Author Message

admin ®

Gender: Male

Longevity: 4 years 3 months

Posts: 14738

Post 12-Jan-2022 04:58

[Quote]

Зверопой 2 / Sing 2
Год выпуска: 2021
Выпущено: США, Япония, Франция
Жанр: Комедия, Фэнтези, Семейный, Приключения, Музыкальный, Мультфильм
Режиссер: Гарт Дженнингс / Garth Jennings, Кристоф Лурделе / Christophe Lourdelet
В ролях: Тори Келли, Риз Уизерспун, Тэрон Эджертон, Ник Кролл, Мэттью МакКонахи, Сет МакФарлейн, Гарт Дженнингс, Дженнифер Сондерс, Челси Перетти, Скарлетт Йоханссон, Бобби Каннавале, Ник Офферман, Адам Бакстон, Эрик Андре, Холзи
О фильме: Тяжело быть продюсером, когда ты коала и у тебя лапки. Еще сложнее, когда твоя верная помощница древнее печатной машинки. И совсем весело, когда твоя труппа — это танцующий без остановки пухляш, колючая девочка-панк, застенчивая школьница, верзила-гангстер и многодетная мама, чьи дети — поросята в прямом смысле слова. Рецепт успеха прост — рвануть в мировую столицу развлечений, завербовать легендарного рок-музыканта и взорвать сцену новым шоу.

Продолжительность: 01:49:48
Перевод: Профессиональный (многолосый, закадровый) Jaskier
Субтитры: английские
Фрмат: MKV
Качество: WEB-DL 1080p
Видео: MPEG-4 AVC, 6540 Кбит/с, 1918x1036
Аудио #1: AC3, 6 ch, 448 Кбит/с | RUS | Tnx.KinoPub
Аудио #2: E-AC3 JOC, 6 ch, 768 Кбит/с | ENG |

Скриншоты

-

MediaInfo

Общее
Уникальный идентификатор : 44426004756670829675828709333181893767 (0x216C23253E42B2B5E8A5370939278C87)
Полное имя : E:TorrentsSing.2.2021.1080p_от New-Team.mkv
Формат : Matroska
Версия формата : Version 4
Размер файла : 5,95 Гбайт
Продолжительность : 1 ч. 49 м.
Общий поток : 7 759 Кбит/сек
Название фильма : Sing.2.2021.1080p_от New-Team
Дата кодирования : UTC 2022-01-11 19:45:56
Программа кодирования : mkvmerge v59.0.0 ('Shining Star') 64-bit
Библиотека кодирования : libebml v1.4.2 + libmatroska v1.6.4
Видео
Идентификатор : 1
Формат : AVC
Формат/Информация : Advanced Video Codec
Профиль формата : High@L4
Настройки формата : CABAC / 4 Ref Frames
Параметр CABAC формата : Да
Параметр RefFrames формата : 4 кадра
Идентификатор кодека : V_MPEG4/ISO/AVC
Продолжительность : 1 ч. 49 м.
Битрейт : 6 540 Кбит/сек
Ширина : 1 918 пикселей
Высота : 1 036 пикселей
Соотношение сторон : 1,85:1
Режим частоты кадров : Постоянный
Частота кадров : 23,976 (24000/1001) кадра/сек
Цветовое пространство : YUV
Субдискретизация насыщенности : 4:2:0
Битовая глубина : 8 бит
Тип развёртки : Прогрессивная
Бит/(Пиксели*Кадры) : 0.137
Размер потока : 5,02 Гбайт (84%)
Default : Да
Forced : Нет
Цветовой диапазон : Limited
Основные цвета : BT.709
Характеристики трансфера : BT.709
Коэффициенты матрицы : BT.709
Аудио #1
Идентификатор : 2
Формат : AC-3
Формат/Информация : Audio Coding 3
Коммерческое название : Dolby Digital
Идентификатор кодека : A_AC3
Продолжительность : 1 ч. 49 м.
Вид битрейта : Постоянный
Битрейт : 448 Кбит/сек
Каналы : 6 каналов
Channel layout : L R C LFE Ls Rs
Частота : 48,0 КГц
Частота кадров : 31,250 кадров/сек (1536 SPF)
Метод сжатия : С потерями
Размер потока : 352 Мбайт (6%)
Заголовок : [MVO] Jaskier
Язык : Russian
Service kind : Complete Main
Default : Да
Forced : Нет
Аудио #2
Идентификатор : 3
Формат : E-AC-3 JOC
Формат/Информация : Enhanced AC-3 with Joint Object Coding
Коммерческое название : Dolby Digital Plus with Dolby Atmos
Идентификатор кодека : A_EAC3
Продолжительность : 1 ч. 49 м.
Вид битрейта : Постоянный
Битрейт : 768 Кбит/сек
Каналы : 6 каналов
Channel layout : L R C LFE Ls Rs
Частота : 48,0 КГц
Частота кадров : 31,250 кадров/сек (1536 SPF)
Метод сжатия : С потерями
Размер потока : 603 Мбайт (10%)
Заголовок : English
Язык : English
Service kind : Complete Main
Default : Нет
Forced : Нет
Complexity index : 16
Number of dynamic objects : 15
Bed channel count : 1 канал
Bed channel configuration : LFE
Текст #1
Идентификатор : 4
Формат : UTF-8
Идентификатор кодека : S_TEXT/UTF8
Идентификатор кодека/Информация : UTF-8 Plain Text
Продолжительность : 1 ч. 44 м.
Битрейт : 81 бит/сек
Count of elements : 2072
Размер потока : 62,1 Кбайт (0%)
Язык : English
Default : Нет
Forced : Нет
Текст #2
Идентификатор : 5
Формат : UTF-8
Идентификатор кодека : S_TEXT/UTF8
Идентификатор кодека/Информация : UTF-8 Plain Text
Продолжительность : 1 ч. 49 м.
Битрейт : 90 бит/сек
Count of elements : 2403
Размер потока : 72,4 Кбайт (0%)
Заголовок : SDH
Язык : English
Default : Нет
Forced : Нет
 GOLD TORRENT! DOWNLOAD TRAFFIC DOES NOT CONSIDER! 
Torrent: Registered [ 2022-01-12 04:58 ]   · ADD8A322E2ABEA8DDDCA5C0C12AA141B32A5415F

Download .torrent

Download

16 KB

Status: checked
Completed: 0 times
Size: 5.95 GB
Поделиться:
terms.php
[Profile] [PM]
Display posts:    
Reply to topic

Current time is: 19-Jan 14:46

All times are UTC + 3



You cannot post new topics in this forum
You cannot reply to topics in this forum
You cannot edit your posts in this forum
You cannot delete your posts in this forum
You cannot vote in polls in this forum
You cannot attach files in this forum
You can download files in this forum